.
Авторизация | Регистрация
» » 3 дня на убийство / 3 Days to Kill (2014) BDRip от New-Team | D | лицензия торрент скачать бесплатно




    3 дня на убийство / 3 Days to Kill (2014) BDRip от New-Team | D | лицензия торрент скачать бесплатно

    Опубликовал: Админ | Дата: 27-02-2015, 11:10 | Просмотров: 158



    Снималось в: США, Франция, Греция, Россия / 3DTK, EuropaCorp, Feelgood Entertainment, Paradise/MGN, Relativity Media, Wonderland Sound and Vision

    Категория жанра: боевик, криминал, триллер, драма, комедия
    Создали в: 2014
    Время просмотра: 01:56:52

    Перевод текста: Профессиональный (дублированный)
    Субтитры подготовлены: нет
    Оригинальная аудиодорожка: нет

    Главный режиссер: МакДжи / McG

    Актеры: Кевин Костнер, Эмбер Хёрд, Хейли Стайнфелд, Конни Нильсен, Томас Лемаркус, Рихард Заммель, Марк Андреони, Бруно Риччи, Йонас Блоке, Эрик Эбони...

    Роли дублировали: Александр Головчанский, Полина Щербакова, Наталья Терешкова, Нина Тобилевич, Денис Яковлев...

    Сюжет: В секретной лаборатории ученые разработали препарат, который позволяет человеку справиться с любой неизлечимой болезнью. Руководство спецслужб предлагает принять это лекарство экс-агенту спецслужб Итану Раннеру, которому врачи объявили смертельный диагноз. Но он должен выполнить еще одно задание, которое, впрочем, может стоить ему жизни. Теперь вокруг Раннера начинают происходить странные вещи. Что это — галлюцинации, побочный эффект от таблеток или мир действительно полон ужаса и кошмара?



    Качество фильма: BDRip / Blu-ray 1080p
    Тип видео: AVI

    Информация о видео: 720x304 (2.35:1), XViD 2227 Кбит/сек / 24.000 fps / Бит/(Пиксели*Кадры) : 0.424
    Информация о звуке: Dolby Digital Audio Russian 448 kbps 5.1 / 48 kHz / 448 kbps

    Раздача от:
    MediaInfo

    Общее
    Полное имя : 3.dnya.na.ubiystvo.2014.D.BDRip_New-Team_by_avproh.avi
    Формат : AVI
    Формат/Информация : Audio Video Interleave
    Профиль формата : OpenDML
    Размер файла : 2,19 Гбайт
    Продолжительность : 1 ч. 56 м.
    Общий поток : 2687 Кбит/сек
    Программа кодирования : VirtualDubMod 1.5.10.3 | www.virtualdub-fr.org || (build 2550/release)
    Библиотека кодирования : VirtualDubMod build 2550/release

    Видео
    Идентификатор : 0
    Формат : MPEG-4 Visual
    Профиль формата : Advanced Simple@L5
    Параметр BVOP формата : 1
    Параметр QPel формата : Нет
    Параметр GMC формата : Без точки перехода
    Параметр матрицы формата : Выборочная
    Идентификатор кодека : XVID
    Идентификатор кодека/Подсказка : XviD
    Продолжительность : 1 ч. 56 м.
    Битрейт : 2227 Кбит/сек
    Ширина : 720 пикселей
    Высота : 304 пикселя
    Соотношение сторон : 2,35:1
    Частота кадров : 24,000 кадра/сек
    Цветовое пространство : YUV
    Субдискретизация насыщенности : 4:2:0
    Битовая глубина : 8 бит
    Тип развёртки : Прогрессивная
    Метод сжатия : С потерями
    Бит/(Пиксели*Кадры) : 0.424
    Размер потока : 1,82 Гбайт (83%)
    Библиотека кодирования : XviD 73

    Аудио
    Идентификатор : 1
    Формат : AC-3
    Формат/Информация : Audio Coding 3
    Расширение режима : CM (complete main)
    Параметр Endianness формата : Big
    Идентификатор кодека : 2000
    Продолжительность : 1 ч. 56 м.
    Вид битрейта : Постоянный
    Битрейт : 448 Кбит/сек
    Каналы : 6 каналов
    Расположение каналов : Front: L C R, Side: L R, LFE
    Частота : 48,0 КГц
    Битовая глубина : 16 бит
    Метод сжатия : С потерями
    Размер потока : 375 Мбайт (17%)
    Выравнивание : Разделение по промежуткам
    Продолжительность промежутка : 42 мс. (1,00 видеокадр)
    Время предзагрузки промежутка : 500 мс.

    Скриншоты для ознакомления:



    Залил: avproh
    Размер скачиваемого торрента: 2.19 GB (2355079168 Bytes)

    3 дня на убийство / 3 Days to Kill (2014) BDRip от New-Team | D | лицензия торрент скачать бесплатно
    загрузка...
    Рейтинг →
     (голосов: 1, оценка 5/5, голосовать можно 1 раз )

    Другие торренты по теме:

  • Средь бела дня / The Cold Light of Day (2012) HDRip-AVC торрент скачать бесплатно
  • Клуб выходного дня / Клуб Завтрак / The Breakfast Club (1985) BDRip-AVC | L1 торрент скачать бесплатно
  • Цикада восьмого дня / Youkame no semi / Rebirth (2011) DVDRip | L2 торрент скачать бесплатно
  • Три дня на побег / The Next Three Days (2010) HDRip-AVC торрент скачать бесплатно
  • Замуж на 2 дня / Un plan parfait (2012) BDRip 720p торрент скачать бесплатно
  • Книга судного дня / Doomsday Book / Inlyumyeolmangbogoseo (2012) BDRip | L2 торрент скачать бесплатно
  • В конце дня / Am Ende des Tages (2011) SATRip от RG MixTorrent | P2 торрент скачать бесплатно
  • Два дня в Париже / 2 Days in Paris (2007) BDRip от Rulya74 торрент скачать бесплатно


    • Комментарии (0):

      Информация

      Информация

        Посетители, находящиеся в группе Гости, не могут оставлять комментарии в данной новости.

        ↓ Меню



        ↓ Опрос

        А Вы добавили сайт в закладки?
        Да
        Не


        Top 10 за неделю (Фильмы)

        Ёлки 5 (2016) WEB-DLRip скачать торрент бесплатно

        (просмотров: 571)
        Разрушение / Demolition (2015) BDRemux 1080p от ExKinoRay | L скачать торрент бесплатно

        (просмотров: 381)
        Мой парень – киллер / Mr. Right (2015) WEB-DL 1080p | L скачать торрент бесплатно

        (просмотров: 381)
        Экипаж (2016) BDRip от New-Team | D | Лицензия скачать торрент бесплатно
        АНОНСЫ МОИХ РАЗДАЧ
        (просмотров: 351)
        Экипаж (2016) BDRip от New-Team | D | Лицензия скачать торрент бесплатно
        АНОНСЫ МОИХ РАЗДАЧ
        (просмотров: 311)
        Гений / Genius (2016) WEB-DLRip 1080p | Звук TS скачать торрент бесплатно

        (просмотров: 211)
        Кухня (1-5 сезоны: 1-100 серии из 100 + 2 бонуса) / 2012-2015 / РУ / DVDRip, WEB-DLRip скачать торрент бесплатно

        (просмотров: 201)
        Дуэлянт (2016) WEB-DLRip от Scarabey | iTunes скачать торрент бесплатно

        (просмотров: 191)
        Демон внутри / Вскрытие Джейн Доу / The Autopsy of Jane Doe (2016) WEB-DLRip от Scarabey | P скачать торрент бесплатно
        Мы В КОНТАКТЕ =)
        (просмотров: 181)
        Кухня (2015) SATRip скачать торрент бесплатно
        Кухня ? Кухня (2015) SATRip скачать торрент бесплатно
        (просмотров: 181)