.
Авторизация | Регистрация
Хочешь лучшие торренты? Добавь свой email!
Добавить
» » Колония / Double Team (1997) HDTVRip от New-Team | P торрент скачать бесплатно




    Колония / Double Team (1997) HDTVRip от New-Team | P торрент скачать бесплатно

    Опубликовал: Админ | Дата: 27-02-2015, 11:10 | Просмотров: 209


    Снималось в: США
    Создали в: Columbia Pictures, Film Workshop Ltd., Mandalay Entertainment, One Story Pictures
    Категория жанра: боевик, триллер, комедия
    Создали в: 1997
    Время просмотра: 01:33:00

    Перевод текста: Профессиональный (многоголосый закадровый)
    Оригинальная аудиодорожка: нет
    Субтитры подготовлены: нет

    Главный режиссер: Цуй Харк / Tsui Hark

    Актеры:
    Жан-Клод Ван Дамм (Jack Quinn), Дэннис Родман (Yaz,), Микки Рурк (Stavros), Пол Фримен (Goldsmythe), Наташа Линдинжер (Kathryn Quinn), Валерия Кавалли (Dr. Maria Trifioli), Джей Бенедикт (Brandon), Джоэлль Дэво-Вуллион (Stavros; Girlfriend), Бруно Билотта (Kofi), Марио Опинато (James), Грант Расселл (Carney), Уильям Данн (Roger)

    Роли дублировали:
    Владимир Герасимов (Jack Quinn), Олег Куценко (Yaz), Рудольф Панков (Stavros), Виктор Петров (Goldsmythe), Ольга Плетнева (Kathryn Quinn), Марина Тарасова (Dr. Maria Trifioli), Александр Рахленко, Дмитрий Филимонов, Андрей Казанцев, Ольга Кузнецова...

    Сюжет:
    Жан-Клод в роли секретного суперагента Джека Куинна. Ему поручают убрать опасного международного террориста Ставроса, но в самый ответственный момент, когда нужно было нажимать на спусковой курок, Ставрос обнимал жену и ребенка. Рука Джека дрогнула, и он упустил врага, хотя жена и сын его погибли. Теперь у Ставроса были и веские личные счеты с теми, кто заказал его убийство. Итак, Джек совершил ошибку, а такое не прощается, и он был помещен в Колонию, став мертвецом для всего остального мира, включая собственную семью. Здесь обитали мертвые лучшие шпионы и агенты со всей планеты. Они были слишком опасны, чтобы жить, и слишком дорого стоили, чтобы быть убитыми. Их использовали для анализа и отработки экстремальных ситуаций. Однако Куинн не смирился и совершил невероятный побег, чтобы довести задание до конца. Он находит себе партнера, эксцентричного торговца оружием, чернокожего лихого парня с единственной страстью — разрушать. У них разный стиль, но одна задача…




    Исходник: HDTV 1080i
    Тип релиза: HDTVRip
    Контейнер: AVI

    Информация о видео: 720x304 (2.35:1), 23,976 fps, XviD ~ 983 kbps avg, 0.187 bit/pixel
    Информация о звуке: 48 kHz, MP3 2.0, 128 kbps MVO

    Раздача от:
    MediaInfo

    Общее
    Полное имя : Koloniya.1997.HDTVRip-745_New-team_by_AVP_Studio.avi
    Формат : AVI
    Формат/Информация : Audio Video Interleave
    Размер файла : 745 Мбайт
    Продолжительность : 1 ч. 33 м.
    Общий поток : 1120 Кбит/сек
    Программа кодирования : VirtualDubModRus 1.5.10.2 (build 2542/release)
    Библиотека кодирования : VirtualDubMod build 2542/release

    Видео
    Идентификатор : 0
    Формат : MPEG-4 Visual
    Профиль формата : Advanced Simple@L5
    Параметр BVOP формата : 1
    Параметр QPel формата : Нет
    Параметр GMC формата : Без точки перехода
    Параметр матрицы формата : Выборочная
    Идентификатор кодека : XVID
    Идентификатор кодека/Подсказка : XviD
    Продолжительность : 1 ч. 33 м.
    Битрейт : 983 Кбит/сек
    Ширина : 720 пикселей
    Высота : 304 пикселя
    Соотношение сторон : 2,35:1
    Частота кадров : 23,976 кадра/сек
    Цветовое пространство : YUV
    Субдискретизация насыщенности : 4:2:0
    Битовая глубина : 8 бит
    Тип развёртки : Прогрессивная
    Метод сжатия : С потерями
    Бит/(Пиксели*Кадры) : 0.187
    Размер потока : 654 Мбайт (88%)
    Библиотека кодирования : XviD 73

    Аудио
    Идентификатор : 1
    Формат : MPEG Audio
    Версия формата : Version 1
    Профиль формата : Layer 3
    Идентификатор кодека : 55
    Идентификатор кодека/Подсказка : MP3
    Продолжительность : 1 ч. 33 м.
    Вид битрейта : Постоянный
    Битрейт : 128 Кбит/сек
    Каналы : 2 канала
    Частота : 48,0 КГц
    Метод сжатия : С потерями
    Размер потока : 85,2 Мбайт (11%)
    Выравнивание : Соединение по промежуткам
    Продолжительность промежутка : 42 мс. (1,00 видеокадр)
    Время предзагрузки промежутка : 504 мс.
    Библиотека кодирования : LAME3.99r
    Залил: AVPStudio
    Размер скачиваемого торрента: 745.14 MB (781332480 Bytes)


    Колония / Double Team (1997) HDTVRip от New-Team | P торрент скачать бесплатно
    загрузка...
    Рейтинг →
     (голосов: 1, оценка 5/5, голосовать можно 1 раз )

    Другие торренты по теме:

  • Колония / Double Team (1997) HDTVRip
  • Колония / The Colony (2013) DVDRip | L2
  • Колония / The Colony (2013) WEB-DL 720p | L2
  • Колония / The Colony (2013) WEB-DLRip-AVC | L2
  • Колония / The Colony (2013) WEB-DL 1080p | L2
  • Колония / The Colony (2013) WEB-DLRip-AVC от ExKinoRay | L2
  • Колония / The Colony (2013) WEB-DLRip от BitTracker | L2
  • Колония / The Colony (2013) WEB-DLRip-AVC от FireBit-Films NoLimits-Team | L2


    • Комментарии (0):

      Информация

      Информация

        Посетители, находящиеся в группе Гости, не могут оставлять комментарии в данной новости.

        ↓ Меню



        ↓ Опрос

        А Вы добавили сайт в закладки?
        Да
        Не


        Top 10 за месяц (Фильмы)