.
Авторизация | Регистрация
» » Пьяный мастер 2. / Jui kuen II (1994) BDRip by msltel | P, A, L1 торрент скачать бесплатно




    Пьяный мастер 2. / Jui kuen II (1994) BDRip by msltel | P, A, L1 торрент скачать бесплатно

    Опубликовал: Админ | Дата: 27-02-2015, 11:10 | Просмотров: 218



    Русское название: Пьяный мастер 2
    Русское название в мировом прокате: Jui kuen II
    Создали в: 1994
    Категория жанра: Боевик, комедия
    Снималось в: Dimension Films
    Главный режиссер: Чиа-Лянг Лиу
    Актеры: Джеки Чан, Анита Муи, Ти Лунг, Феликс Вонг

    Сюжет фильма: Пьяный мастер возвращается, его стиль становится еще более отточенным и смешным! Возвращаясь домой из шопинг-тура вместе со своим отцом, знаменитый пьяный мастер Вонг-Фей Хунг оказывается вовлеченным в потасовку между иностранцами, пытающимися вывезти из Китая ценные древние реликвии, и патриотами, которые хотят помешать вывозу этих предметов из страны. К сожалению, отец Вонг-Фей Хунга никогда не занимался ни одним из видов спорта, кроме пьяных драк, поэтому герою приходится сражаться практически одному против толпы. Но как всегда его удивительный стиль боя помогает ему расправиться с многочисленными врагами.

    Качество фильма: BDRip
    Размер скачиваемого торрента: 3.05 ГБ
    Время просмотра: 01:42:30

    Информация о видео: XviD, 1574 Кбит/с, 720x304
    Информация о звуке 1: русский, 48 kHz, AC3, 2 ch, 192 kbps avg, Профессиональный многоголосый, СТС
    Информация о звуке 2: русский, 48 kHz, AC3, 2 ch, 192 kbps avg, Профессиональный многоголосый, ОРТ
    Информация о звуке 3: русский, 48 kHz, AC3, 6 ch, 448 kbps avg, Авторский, Андрей Гаврилов
    Информация о звуке 4: русский, 48 kHz, AC3, 6 ch, 448 kbps avg, Авторский, Юрий Живов

    Внешние файлы
    Информация о звуке: русский, 48 kHz, AC3, 2 ch, 192 kbps avg, Авторский, Михаил Иванов
    Информация о звуке: русский, 48 kHz, AC3, 6 ch, 448 kbps avg, Любительский одноголосый, Serg M
    Информация о звуке: русский, 48 kHz, AC3, 2 ch, 192 kbps avg, Любительский одноголосый, Tai Seng
    Информация о звуке: английский, 48 kHz, AC3, 6 ch, 448 kbps avg, Оригинал
    Субтитры: русские
    Субтитры: английские

    Исходник: Ambulacetus (HDtracker)

    Сравнение с исходником



    MediaInfo
    Общее
    Полное имя : D:VideoPjanyj master.2.1994.BDRipPjanyj master.2.1994.AVO.rus.М.Иванов.ac3
    Формат : AC-3
    Формат/Информация : Audio Coding 3
    Размер файла : 140 Мбайт
    Продолжительность : 1 ч. 41 м.
    Режим общего битрейта : Постоянный
    Общий поток : 192 Кбит/сек

    Аудио
    Формат : AC-3
    Формат/Информация : Audio Coding 3
    Расширение режима : CM (complete main)
    Параметр Endianness формата : Big
    Продолжительность : 1 ч. 41 м.
    Вид битрейта : Постоянный
    Битрейт : 192 Кбит/сек
    Каналы : 2 канала
    Расположение каналов : Front: L R
    Частота : 48,0 КГц
    Битовая глубина : 16 бит
    Метод сжатия : С потерями
    Размер потока : 140 Мбайт (100%)

    Общее
    Полное имя : D:VideoPjanyj master.2.1994.BDRipPjanyj master.2.1994.BDRip.avi
    Формат : AVI
    Формат/Информация : Audio Video Interleave
    Профиль формата : OpenDML
    Размер файла : 2,06 Гбайт
    Продолжительность : 1 ч. 42 м.
    Общий поток : 2884 Кбит/сек
    Программа кодирования : VirtualDubMod 1.5.10.2 (build 2540/release)
    Библиотека кодирования : VirtualDubMod build 2540/release

    Видео
    Идентификатор : 0
    Формат : MPEG-4 Visual
    Профиль формата : Advanced Simple@L5
    Параметр BVOP формата : 1
    Параметр QPel формата : Нет
    Параметр GMC формата : Без точки перехода
    Параметр матрицы формата : Default (H.263)
    Режим смешивания : Сжатый битовый поток
    Идентификатор кодека : XVID
    Идентификатор кодека/Подсказка : XviD
    Продолжительность : 1 ч. 42 м.
    Битрейт : 1574 Кбит/сек
    Ширина : 720 пикселей
    Высота : 304 пикселя
    Соотношение сторон : 2,35:1
    Частота кадров : 23,976 кадра/сек
    Цветовое пространство : YUV
    Субдискретизация насыщенности : 4:2:0
    Битовая глубина : 8 бит
    Тип развёртки : Прогрессивная
    Метод сжатия : С потерями
    Бит/(Пиксели*Кадры) : 0.300
    Размер потока : 1,13 Гбайт (55%)
    Библиотека кодирования : XviD 1.2.1 (UTC 2008-12-04)

    Аудио #1
    Идентификатор : 1
    Формат : AC-3
    Формат/Информация : Audio Coding 3
    Расширение режима : CM (complete main)
    Параметр Endianness формата : Big
    Идентификатор кодека : 2000
    Продолжительность : 1 ч. 42 м.
    Вид битрейта : Постоянный
    Битрейт : 192 Кбит/сек
    Каналы : 2 канала
    Расположение каналов : Front: L R
    Частота : 48,0 КГц
    Битовая глубина : 16 бит
    Метод сжатия : С потерями
    Размер потока : 141 Мбайт (7%)
    Выравнивание : Разделение по промежуткам
    Продолжительность промежутка : 42 мс. (1,00 видеокадр)
    Время предзагрузки промежутка : 500 мс.

    Аудио #2
    Идентификатор : 2
    Формат : AC-3
    Формат/Информация : Audio Coding 3
    Расширение режима : CM (complete main)
    Параметр Endianness формата : Big
    Идентификатор кодека : 2000
    Продолжительность : 1 ч. 42 м.
    Вид битрейта : Постоянный
    Битрейт : 192 Кбит/сек
    Каналы : 2 канала
    Расположение каналов : Front: L R
    Частота : 48,0 КГц
    Битовая глубина : 16 бит
    Метод сжатия : С потерями
    Размер потока : 140 Мбайт (7%)
    Выравнивание : Разделение по промежуткам
    Продолжительность промежутка : 42 мс. (1,00 видеокадр)
    Время предзагрузки промежутка : 500 мс.

    Аудио #3
    Идентификатор : 3
    Формат : AC-3
    Формат/Информация : Audio Coding 3
    Расширение режима : CM (complete main)
    Параметр Endianness формата : Big
    Идентификатор кодека : 2000
    Продолжительность : 1 ч. 42 м.
    Вид битрейта : Постоянный
    Битрейт : 448 Кбит/сек
    Каналы : 6 каналов
    Расположение каналов : Front: L C R, Side: L R, LFE
    Частота : 48,0 КГц
    Битовая глубина : 16 бит
    Метод сжатия : С потерями
    Размер потока : 328 Мбайт (16%)
    Выравнивание : Разделение по промежуткам
    Продолжительность промежутка : 42 мс. (1,00 видеокадр)
    Время предзагрузки промежутка : 500 мс.

    Аудио #4
    Идентификатор : 4
    Формат : AC-3
    Формат/Информация : Audio Coding 3
    Расширение режима : CM (complete main)
    Параметр Endianness формата : Big
    Идентификатор кодека : 2000
    Продолжительность : 1 ч. 42 м.
    Вид битрейта : Постоянный
    Битрейт : 448 Кбит/сек
    Каналы : 6 каналов
    Расположение каналов : Front: L C R, Side: L R, LFE
    Частота : 48,0 КГц
    Битовая глубина : 16 бит
    Метод сжатия : С потерями
    Размер потока : 328 Мбайт (16%)
    Выравнивание : Разделение по промежуткам
    Продолжительность промежутка : 42 мс. (1,00 видеокадр)
    Время предзагрузки промежутка : 500 мс.

    Общее
    Полное имя : D:VideoPjanyj master.2.1994.BDRipPjanyj master.2.1994.eng.srt
    Формат : SubRip
    Размер файла : 124 Кбайт

    Текст
    Формат : SubRip
    Метод сжатия : Без потерь

    Общее
    Полное имя : D:VideoPjanyj master.2.1994.BDRipPjanyj master.2.1994.Original.eng.ac3
    Формат : AC-3
    Формат/Информация : Audio Coding 3
    Размер файла : 328 Мбайт
    Продолжительность : 1 ч. 42 м.
    Режим общего битрейта : Постоянный
    Общий поток : 448 Кбит/сек

    Аудио
    Формат : AC-3
    Формат/Информация : Audio Coding 3
    Расширение режима : CM (complete main)
    Параметр Endianness формата : Big
    Продолжительность : 1 ч. 42 м.
    Вид битрейта : Постоянный
    Битрейт : 448 Кбит/сек
    Каналы : 6 каналов
    Расположение каналов : Front: L C R, Side: L R, LFE
    Частота : 48,0 КГц
    Битовая глубина : 16 бит
    Метод сжатия : С потерями
    Размер потока : 328 Мбайт (100%)

    Общее
    Полное имя : D:VideoPjanyj master.2.1994.BDRipPjanyj master.2.1994.rus.srt
    Формат : SubRip
    Размер файла : 113 Кбайт

    Текст
    Формат : SubRip
    Метод сжатия : Без потерь

    Общее
    Полное имя : D:VideoPjanyj master.2.1994.BDRipPjanyj master.2.1994.VO.rus.Serg M.любительский.ac3
    Формат : AC-3
    Формат/Информация : Audio Coding 3
    Размер файла : 397 Мбайт
    Продолжительность : 2 ч. 3 м.
    Режим общего битрейта : Постоянный
    Общий поток : 448 Кбит/сек

    Аудио
    Формат : AC-3
    Формат/Информация : Audio Coding 3
    Расширение режима : CM (complete main)
    Параметр Endianness формата : Big
    Продолжительность : 2 ч. 3 м.
    Вид битрейта : Постоянный
    Битрейт : 448 Кбит/сек
    Каналы : 6 каналов
    Расположение каналов : Front: L C R, Side: L R, LFE
    Частота : 48,0 КГц
    Битовая глубина : 16 бит
    Метод сжатия : С потерями
    Размер потока : 397 Мбайт (100%)

    Общее
    Полное имя : D:VideoPjanyj master.2.1994.BDRipPjanyj master.2.1994.VO.rus.Tai Seng.любительский.ac3
    Формат : AC-3
    Формат/Информация : Audio Coding 3
    Размер файла : 140 Мбайт
    Продолжительность : 1 ч. 42 м.
    Режим общего битрейта : Постоянный
    Общий поток : 192 Кбит/сек

    Аудио
    Формат : AC-3
    Формат/Информация : Audio Coding 3
    Расширение режима : CM (complete main)
    Параметр Endianness формата : Big
    Продолжительность : 1 ч. 42 м.
    Вид битрейта : Постоянный
    Битрейт : 192 Кбит/сек
    Каналы : 2 канала
    Расположение каналов : Front: L R
    Частота : 48,0 КГц
    Битовая глубина : 16 бит
    Метод сжатия : С потерями
    Размер потока : 140 Мбайт (100%)
    Скриншоты для ознакомления

    Залил: msltel
    Размер скачиваемого торрента: 3.05 GB (3271777251 Bytes)

    Пьяный мастер 2. / Jui kuen II (1994) BDRip by msltel | P, A, L1 торрент скачать бесплатно
    загрузка...
    Рейтинг →
     (голосов: 1, оценка 5/5, голосовать можно 1 раз )

    Другие торренты по теме:

  • Месть пьяного мастера / Revenge of the Drunken Master (1984) DVDRip от ikusha76 торрент скачать бесплатно
  • Пьяный мастер / Jui kuen (1978) DVDRip-AVC | A, P торрент скачать бесплатно
  • Легенда о пьяном мастере / Пьяный мастер 2 / The Legend of Drunken Master / Jui kuen II (1994) HDRip от Assassins Creed | КПК торрент скачать бесплатно
  • Пьяный мастер / Drunken Master / Jui kuen (1978) HDTVRip-AVC от New-Team скачать через торрент бесплатно
  • Пьяный мастер / Drunken Master / Jui kuen (1978) HDTVRip от New-Team скачать через торрент бесплатно
  • Пьяный мастер 2. Легенда о пьяном мастере / The Legend of Drunken Master / Jui kuen II (1994) HDRip-AVC от New-Team торрент скачать бесплатно
  • Пьяный мастер 2. Легенда о пьяном мастере / The Legend of Drunken Master / Jui kuen II (1994) HDRip от New-Team торрент скачать бесплатно
  • Пьяный мастер 2. / Jui kuen II (1994) BDRip 1080p by msltel | P, A, L1 скачать через торрент бесплатно


    • Комментарии (0):

      Информация

      Информация

        Посетители, находящиеся в группе Гости, не могут оставлять комментарии в данной новости.

        ↓ Меню



        ↓ Опрос

        А Вы добавили сайт в закладки?
        Да
        Не


        Top 10 за неделю (Фильмы)

        Ёлки 5 (2016) WEB-DLRip скачать торрент бесплатно

        (просмотров: 2481)
        Разрушение / Demolition (2015) BDRemux 1080p от ExKinoRay | L скачать торрент бесплатно

        (просмотров: 1111)
        Мой парень – киллер / Mr. Right (2015) WEB-DL 1080p | L скачать торрент бесплатно

        (просмотров: 1051)
        Экипаж (2016) BDRip от New-Team | D | Лицензия скачать торрент бесплатно
        АНОНСЫ МОИХ РАЗДАЧ
        (просмотров: 901)
        Экипаж (2016) BDRip от New-Team | D | Лицензия скачать торрент бесплатно
        АНОНСЫ МОИХ РАЗДАЧ
        (просмотров: 901)
        Гений / Genius (2016) WEB-DLRip 1080p | Звук TS скачать торрент бесплатно

        (просмотров: 891)
        Демон внутри / Вскрытие Джейн Доу / The Autopsy of Jane Doe (2016) WEB-DLRip от Scarabey | P скачать торрент бесплатно
        Мы В КОНТАКТЕ =)
        (просмотров: 811)
        Кухня (1-5 сезоны: 1-100 серии из 100 + 2 бонуса) / 2012-2015 / РУ / DVDRip, WEB-DLRip скачать торрент бесплатно

        (просмотров: 811)
        Бригада (2002) HDDVDRip-AVC от TORRENT-45

        (просмотров: 811)
        Равные / Equals (2015) WEB-DLRip | L2 скачать торрент бесплатно

        (просмотров: 811)