.
Авторизация | Регистрация
» » Великолепный век. Тайный мир. Фильм о фильме / Muhtesem Yuzyil. Gizli Dnya (2014) HDTVRip 720p | L1 торрент скачать бесплатно




    Великолепный век. Тайный мир. Фильм о фильме / Muhtesem Yuzyil. Gizli Dnya (2014) HDTVRip 720p | L1 торрент скачать бесплатно

    Опубликовал: Админ | Дата: 27-02-2015, 11:10 | Просмотров: 178



    Детально о кино
    Русское название: Великолепный век. Тайный мир. Фильм о фильме
    Русское название в мировом прокате: Muhtesem Yuzyil. Gizli D?nya
    Создали в: 2014
    Категория жанра: Документальный, фильм о фильме
    Главный режиссер: Дурул Тайлан / Durul Taylan, Ягмур Тайлан / Yagmur Taylan
    Актеры: Небахат Чехре /Nebahat ?ehre/, Окан Ялабик /Okan Yalabik/, Сельма Эргеч /Selma Erge?/, Халит Эргенч /Halit Ergen?/, Филиз Ахмет /Filiz Ahmet/

    Сюжет фильма:
    Если вы мечтаете заглянуть за кулисы сериала Великолепный век и узнать, как он снимался, как проходил кастинг актёров, где и как проходили съемки, какие трудности возникали в процессе создания сериала, то этот фильм именно для вас! Вас ждет увлекательное путешествие в мир кино – эксклюзивные интервью с создателями и актерами, репортажи со съемочной площадки и многое другое.


    Снималось в: Турция
    Время просмотра: ~ 50 минут серия
    Перевод текста: Любительский (одноголосый, закадровый) turok1990

    Файл
    Кодек для видео: AVC / AAC
    Качество фильма: HDTVRip 720p
    Информация о видео: AVC, 1280x720 (16:9), 25.000 fps, 1 873 Kbps (0.081 bit/pixel)
    Информация о звуке:
    Аудио #1: AAC LC, 44.1 KHz, 2 ch, 128 Kbps, VBR (Russian)
    Аудио #2: AAC LC, 48.0 KHz, 2 ch, 92.0 Kbps, VBR (Turkish)

    Скриншоты для ознакомления
    Скриншоты для ознакомления: повтор
    MediaInfo
    General
    Complete name : /Muhtesem_Yuzyil_Gizli_Dunya/Muhtesem_Yuzyil_Gizli_Dunya_01_HDTVRip_720p_rus(turok1990).mp4
    Format : MPEG-4
    Format profile : Base Media
    Codec ID : isom
    File size : 736 MiB
    Duration : 49mn 2s
    Overall bit rate mode : Variable
    Overall bit rate : 2 099 Kbps
    Encoded date : UTC 2014-05-18 22:10:27
    Tagged date : UTC 2014-05-18 22:10:27

    Video
    ID : 1
    Format : AVC
    Format/Info : Advanced Video Codec
    Format profile : High@L3.1
    Format settings, CABAC : Yes
    Format settings, ReFrames : 4 frames
    Codec ID : avc1
    Codec ID/Info : Advanced Video Coding
    Duration : 49mn 2s
    Bit rate : 1 873 Kbps
    Maximum bit rate : 6 869 Kbps
    Width : 1 280 pixels
    Height : 720 pixels
    Display aspect ratio : 16:9
    Frame rate mode : Constant
    Frame rate : 25.000 fps
    Color space : YUV
    Chroma subsampling : 4:2:0
    Bit depth : 8 bits
    Scan type : Progressive
    Bits/(Pixel*Frame) : 0.081
    Stream size : 657 MiB (89%)
    Writing library : x264 core 130 r2274bm c832fe9
    Encoding settings : cabac=1 / ref=4 / deblock=1:-1:-1 / analyse=0x3:0x113 / me=umh / subme=8 / psy=1 / psy_rd=1.00:0.15 / mixed_ref=1 / me_range=16 / chroma_me=1 / trellis=1 / 8x8dct=1 / cqm=0 / deadzone=21,11 / fast_pskip=1 / chroma_qp_offset=-3 / threads=6 / lookahead_threads=1 / sliced_threads=0 / nr=0 / decimate=1 / interlaced=0 / bluray_compat=0 / constrained_intra=0 / bframes=3 / b_pyramid=2 / b_adapt=2 / b_bias=0 / direct=3 / weightb=1 / open_gop=0 / weightp=2 / keyint=250 / keyint_min=25 / scenecut=40 / intra_refresh=0 / rc_lookahead=50 / rc=crf / mbtree=1 / crf=23.0 / qcomp=0.60 / qpmin=0 / qpmax=69 / qpstep=4 / ip_ratio=1.40 / aq=1:1.00
    Language : English
    Encoded date : UTC 2014-05-16 21:29:34
    Tagged date : UTC 2014-05-18 22:11:14

    Audio #1
    ID : 2
    Format : AAC
    Format/Info : Advanced Audio Codec
    Format profile : LC
    Codec ID : 40
    Duration : 49mn 2s
    Bit rate mode : Variable
    Bit rate : 128 Kbps
    Maximum bit rate : 205 Kbps
    Channel(s) : 2 channels
    Channel positions : Front: L R
    Sampling rate : 44.1 KHz
    Compression mode : Lossy
    Delay relative to video : -3s 333ms
    Stream size : 44.9 MiB (6%)
    Title : VO turok1990
    Language : Russian
    Encoded date : UTC 2014-05-18 22:11:08
    Tagged date : UTC 2014-05-18 22:11:14

    Audio #2
    ID : 3
    Format : AAC
    Format/Info : Advanced Audio Codec
    Format profile : LC
    Codec ID : 40
    Duration : 49mn 2s
    Bit rate mode : Variable
    Bit rate : 92.0 Kbps
    Maximum bit rate : 111 Kbps
    Channel(s) : 2 channels
    Channel positions : Front: L R
    Sampling rate : 48.0 KHz
    Compression mode : Lossy
    Delay relative to video : -3s 333ms
    Stream size : 32.3 MiB (4%)
    Language : Turkish
    Encoded date : UTC 2014-05-18 22:11:11
    Tagged date : UTC 2014-05-18 22:11:14
    Раздача ведётся путём добавления новых серий
    Раздача ведётся путём добавления новых серий; при каждом добавлении создаётся новый торрент. Чтобы начать докачку новой серии, пользователям необходимо сделать следующее:
    (1) остановить скачивание,
    (2) удалить старый торрент у себя из клиента (старые серии удалять не надо),
    (3) скачать новый торрент и запустить его у себя в клиенте вместо старого, при этом указать клиенту путь в старую папку куда и должно происходить скачивание новых серий.

    Ваш клиент при этом должен произвести хеширование (проверку) старой папки (если не производит сам - помогите ему сделать это), и будет докачивать только те серии которых у вас ещё нет. Старые серии при этом не удаляются, а продолжают раздаваться!

    Eсли вы уже удалили старые серии, то предотвратить повторную закачку старых серий можно, отжав галочку в соответствующих местах при запуске нового торрента. По возможности, желательно не удалять старые серии как можно дольше чтобы релизёр не столько продолжал раздавать старые серии, а смог сконцентрироваться на новых.

    Размер скачиваемого торрента: 3.19 GB (3428353153 Bytes)

    Великолепный век. Тайный мир. Фильм о фильме / Muhtesem Yuzyil. Gizli Dnya (2014) HDTVRip 720p | L1 торрент скачать бесплатно
    загрузка...
    Рейтинг →
     (голосов: 1, оценка 3/5, голосовать можно 1 раз )

    Другие торренты по теме:

  • Великолепный век / Muhtesem Yzyil (2011-2012) HDTVRip | L1 торрент скачать бесплатно
  • Великолепный век. Создание легенды / Muhtesem Yuzyl. Yapim Belgeseli (2013) WEB-DLRip торрент скачать бесплатно
  • OST - Великолепный век / Muhteem Yzyl / Muhtesem Yuzyil - Vol 1 (2013) MP3 торрент скачать бесплатно
  • Великолепный век / Muhtesem Yzyil (2012-2013) WEBDLRip | D торрент скачать бесплатно
  • Великолепный век / Muhtesem Yzyil (2013) WEB-DLRip | L1 скачать через торрент бесплатно
  • Великолепный век / Muhtesem Yzyil (2013) SATRip | L1 торрент скачать бесплатно
  • Великолепный век / Muhtesem Yuzyil (2013) TVRip | L1 скачать через торрент бесплатно
  • Великолепный век / Muhtesem Yuzyil (2011-2013) WEB-DLRip | ТК Домашний скачать через торрент бесплатно


    • Комментарии (0):

      Информация

      Информация

        Посетители, находящиеся в группе Гости, не могут оставлять комментарии в данной новости.

        ↓ Меню



        ↓ Опрос

        А Вы добавили сайт в закладки?
        Да
        Не


        Top 10 за неделю (Фильмы)