.
Авторизация | Регистрация
Хочешь лучшие торренты? Добавь свой email!
Добавить
» » 3 дня на убийство / 3 Days to Kill (2014) BDRemux 1080p от NovaLan | Extended Cut скачать через торрент бесплатно




    3 дня на убийство / 3 Days to Kill (2014) BDRemux 1080p от NovaLan | Extended Cut скачать через торрент бесплатно

    Опубликовал: Админ | Дата: 27-02-2015, 11:10 | Просмотров: 175



    Русское название: 3 дня на убийство
    Русское название в мировом прокате: 3 Days to Kill
    Создали в: 2014
    Категория жанра: Боевик, триллер, драма, криминал
    Главный режиссер: МакДжи
    Актеры: Кевин Костнер, Эмбер Хёрд, Хейли Стайнфелд, Конни Нильсен, Томас Лемаркус, Рихард Заммель, Марк Андреони, Бруно Риччи, Йонас Блоке, Эрик Эбони
    Сюжет фильма:
    В секретной лаборатории ученые разработали препарат, который позволяет человеку справиться с любой неизлечимой болезнью. Руководство спецслужб предлагает принять это лекарство экс-агенту спецслужб Итану Раннеру, которому врачи объявили смертельный диагноз. Но он должен выполнить еще одно задание, которое, впрочем, может стоить ему жизни. Теперь вокруг Раннера начинают происходить странные вещи. Что это - галлюцинации, побочный эффект от таблеток или мир действительно полон ужаса и кошмара?


    Снималось в: CША, 3DTK, EuropaCorp, Feelgood Entertainment, Paradise MGN, Relativity Media, Wonderland Sound and Vision
    Время просмотра: 02:02:18
    Перевод текста: Дублированный / Авторский одноголосый (Есарев)

    Кодек для видео: H.264
    Качество фильма: Blu-Ray Remux 1080p
    Информация о видео: MPEG-4 AVC, 26888 Кбит/с, 1920x1080, 23.976 кадр/с
    Информация о звуке: Русский (AC3, 2 ch, 192 Кбит/с), (AC3, 6 ch, 448 Кбит/с), английский (DTS-HD MA, 6 ch, 4184 Кбит/с)
    Субтитры: Русские (форсированные, полные), английские

    Инфо-файл

    Полное имя : E:Раздачи_E3.Days.to.Kill.2014.Extended.Cut.BDRemux.1080p.NovaLan.mkv
    Формат : Matroska
    Версия формата : Version 4 / Version 2
    Размер файла : 27,1 Гбайт
    Продолжительность : 2 ч. 2 м.
    Режим общего битрейта : Переменный
    Общий поток : 31,7 Мбит/сек
    Название фильма : 3 Days to Kill 2014 (Extended Cut) - NovaLan
    Дата кодирования : UTC 2014-06-04 15:58:29
    Программа кодирования : mkvmerge v6.9.1 (;Blue Panther;) 64bit built on Apr 18 2014 18:23:38
    Библиотека кодирования : libebml v1.3.0 + libmatroska v1.4.1

    Видео
    Идентификатор : 1
    Формат : AVC
    Формат/Информация : Advanced Video Codec
    Профиль формата : High@L4.1
    Параметр CABAC формата : Да
    Параметр ReFrames формата : 2 кадра
    Идентификатор кодека : V_MPEG4/ISO/AVC
    Продолжительность : 2 ч. 2 м.
    Вид битрейта : Переменный
    Битрейт : 28,9 Мбит/сек
    Ширина : 1920 пикселей
    Высота : 1080 пикселей
    Соотношение сторон : 16:9
    Частота кадров : 23,976 кадра/сек
    Цветовое пространство : YUV
    Субдискретизация насыщенности : 4:2:0
    Битовая глубина : 8 бит
    Тип развёртки : Прогрессивная
    Бит/(Пиксели*Кадры) : 0.581
    Размер потока : 24,7 Гбайт (91%)
    Заголовок : 3 Days to Kill 2014 (Extended Cut) - NovaLan
    Default : Да
    Forced : Нет

    Аудио #1
    Идентификатор : 2
    Формат : AC-3
    Формат/Информация : Audio Coding 3
    Расширение режима : CM (complete main)
    Параметр Endianness формата : Big
    Идентификатор кодека : A_AC3
    Продолжительность : 2 ч. 2 м.
    Вид битрейта : Постоянный
    Битрейт : 192 Кбит/сек
    Каналы : 2 канала
    Расположение каналов : Front: L R
    Частота : 48,0 КГц
    Битовая глубина : 16 бит
    Метод сжатия : С потерями
    Размер потока : 168 Мбайт (1%)
    Язык : Russian
    Default : Да
    Forced : Нет

    Аудио #2
    Идентификатор : 3
    Формат : AC-3
    Формат/Информация : Audio Coding 3
    Расширение режима : CM (complete main)
    Параметр Endianness формата : Big
    Идентификатор кодека : A_AC3
    Продолжительность : 2 ч. 2 м.
    Вид битрейта : Постоянный
    Битрейт : 448 Кбит/сек
    Каналы : 6 каналов
    Расположение каналов : Front: L C R, Side: L R, LFE
    Частота : 48,0 КГц
    Битовая глубина : 16 бит
    Метод сжатия : С потерями
    Размер потока : 392 Мбайт (1%)
    Язык : Russian
    Default : Нет
    Forced : Нет

    Аудио #3
    Идентификатор : 4
    Формат : DTS
    Формат/Информация : Digital Theater Systems
    Профиль формата : MA / Core
    Идентификатор кодека : A_DTS
    Продолжительность : 2 ч. 2 м.
    Вид битрейта : Переменный
    Битрейт : 1561 Кбит/сек / 1510 Кбит/сек
    Каналы : 6 каналов
    Расположение каналов : Front: L C R, Side: L R, LFE
    Частота : 48,0 КГц
    Битовая глубина : 24 бит
    Метод сжатия : Без потерь / Lossy
    Язык : English
    Default : Нет
    Forced : Нет

    Текст #1
    Идентификатор : 5
    Формат : UTF-8
    Идентификатор кодека : S_TEXT/UTF8
    Идентификатор кодека/Информация : UTF-8 Plain Text
    Язык : Russian
    Default : Да
    Forced : Да

    Текст #2
    Идентификатор : 6
    Формат : UTF-8
    Идентификатор кодека : S_TEXT/UTF8
    Идентификатор кодека/Информация : UTF-8 Plain Text
    Язык : Russian
    Default : Нет
    Forced : Нет

    Текст #3
    Идентификатор : 7
    Формат : UTF-8
    Идентификатор кодека : S_TEXT/UTF8
    Идентификатор кодека/Информация : UTF-8 Plain Text
    Язык : English
    Default : Нет
    Forced : Нет

    Меню
    00:00:00.000 : en:Chapter 1
    00:03:35.131 : en:Chapter 2
    00:06:58.543 : en:Chapter 3
    00:10:56.572 : en:Chapter 4
    00:16:00.709 : en:Chapter 5
    00:20:51.708 : en:Chapter 6
    00:25:05.962 : en:Chapter 7
    00:29:24.345 : en:Chapter 8
    00:34:20.391 : en:Chapter 9
    00:37:46.806 : en:Chapter 10
    00:40:27.299 : en:Chapter 11
    00:44:05.225 : en:Chapter 12
    00:49:24.794 : en:Chapter 13
    00:53:16.443 : en:Chapter 14
    00:57:40.873 : en:Chapter 15
    01:08:28.395 : en:Chapter 16
    01:13:37.621 : en:Chapter 17
    01:19:51.828 : en:Chapter 18
    01:25:59.070 : en:Chapter 19
    01:32:28.167 : en:Chapter 20
    01:39:10.569 : en:Chapter 21
    01:42:49.412 : en:Chapter 22
    01:51:49.452 : en:Chapter 23
    01:54:55.596 : en:Chapter 24
    02:02:17.538 : en:Chapter 25



    Релиз группа NovaLan
    Автор сборки Sergei7721






    Релиз подготовил:
    Залил: Sergei7721
    Размер скачиваемого торрента: 27.10 GB (29095938014 Bytes)

    3 дня на убийство / 3 Days to Kill (2014) BDRemux 1080p от NovaLan | Extended Cut скачать через торрент бесплатно
    загрузка...
    Рейтинг →
     (голосов: 1, оценка 5/5, голосовать можно 1 раз )

    Другие торренты по теме:

  • 3 дня на убийство / 3 Days to Kill (2014) CAMRip от Точка Zрения | L
  • 3 дня на убийство / 3 Days to Kill (2014) SCReener от leon030982 | L
  • 3 дня на убийство / 3 Days to Kill (2014) CAMRip | L
  • 3 дня на убийство / 3 Days to Kill (2014) CAMRip *PROPER* | L скачать через торрент бесплатно
  • 3 дня на убийство / 3 Days to Kill (2014) TS скачать через торрент бесплатно
  • 3 дня на убийство / 3 Days to Kill (2014) BDRip-AVC от MediaClub | Theatrical Cut | Чистый звук скачать через торрент бесплатно
  • 3 дня на убийство / 3 Days to Kill (2014) HDRip-AVC от ExKinoRay | Чистый звук скачать через торрент бесплатно
  • 3 дня на убийство / 3 Days to Kill (2014) HDRip от Scarabey | Театральная версия | Чистый звук скачать через торрент бесплатно


    • Комментарии (0):

      Информация

      Информация

        Посетители, находящиеся в группе Гости, не могут оставлять комментарии в данной новости.

        ↓ Меню



        ↓ Опрос

        А Вы добавили сайт в закладки?
        Да
        Не


        Top 10 за месяц (Фильмы)