.
Авторизация | Регистрация
Хочешь лучшие торренты? Добавь свой email!
Добавить
» » Игра в прятки / Hide and Seek (2005) BDRip-AVC | iPad | D скачать через торрент бесплатно




    Игра в прятки / Hide and Seek (2005) BDRip-AVC | iPad | D скачать через торрент бесплатно

    Опубликовал: Админ | Дата: 27-02-2015, 11:10 | Просмотров: 234



    Игра в прятки / Hide and Seek (2005) BDRip-AVC | iPad | D
    Кто не спрятался - я не виноват

    Русское название: Игра в прятки
    Русское название в мировом прокате: Hide and Seek
    Создали в: 2005
    Категория жанра: ужасы, триллер, детектив
    Главный режиссер: Джон Полсон
    Актеры: Роберт Де Ниро, Дакота Фаннинг, Фамке Янссен, Элизабет Шу, Эми Ирвинг, Дилан Бейкер, Мелисса Лео, Роберт Джон Бёрк, Молли Грант Кэллинс, Дэвид Чандлер

    Сюжет фильма:
    Отец-вдовец отчаянно пытается пробиться к своей 9-летней дочери, создавшей себе подлого маниакального воображаемого друга, одержимого идеей мести отцу. Однако воображаемые друзья могут войти и в реальную жизнь...



    Снималось в: США, Германия
    Киностудия: 20th Century Fox Film Corporation, Fox 2000 Pictures, Josephson Entertainmen

    Время просмотра: 01:40:52
    Перевод текста: Русский дублированный

    Файл
    Кодек для видео: H.264
    Качество фильма: BDRip 576p
    Информация о видео: 1024x426 (2.40:1) at 23.976 fps, AVC at 2350 kbps
    Информация о звуке:
    1: АAС 2.0 132 kbps - Русский дублированный
    Субтитры: отсутствуют

    MediaInfo

    General
    Complete name : C:CREATE264mod1outHide.and.Seek.2005.576p.D.m4v
    Format : MPEG-4
    Codec ID : M4V
    File size : 1.76 GiB
    Duration : 1h 40mn
    Overall bit rate mode : Variable
    Overall bit rate : 2 491 Kbps
    Movie name : Игра в прятки
    Performer : John Polson
    Genre : Horror
    ContentType : Short Film
    Deion : Отец-вдовец отчаянно пытается пробиться к своей 9-летней дочери, создавшей себе подлого маниакального воображаемого друга, одержимого идеей мести отцу. Однако воображаемые друзья могут войти и в реальную жизнь…
    Recorded date : UTC 2005-07-05 07:00:00
    Encoded date : UTC 2014-06-04 15:31:33
    Tagged date : UTC 2014-06-04 15:33:14
    Copyright : 20th Century Fox Film Corporation, Fox 2000 Pictures, Josephson Entertainment
    Cover : Yes
    Comment : Кто не спрятался - я не виноват
    ContentRating : mpaa|R|400|

    Title/Sort : Hide and Seek
    LongDeion : Отец-вдовец отчаянно пытается пробиться к своей 9-летней дочери, создавшей себе подлого маниакального воображаемого друга, одержимого идеей мести отцу. Однако воображаемые друзья могут войти и в реальную жизнь…
    AppleStoreCatalogID : 272726898
    Vendor : Apple:vendor_id:2005-77142

    Video
    ID : 1
    Format : AVC
    Format/Info : Advanced Video Codec
    Format profile : High@L4.1
    Format settings, CABAC : Yes
    Format settings, ReFrames : 10 frames
    Codec ID : avc1
    Codec ID/Info : Advanced Video Coding
    Duration : 1h 40mn
    Bit rate : 2 349 Kbps
    Maximum bit rate : 12.7 Mbps
    Width : 1 024 pixels
    Height : 426 pixels
    Display aspect ratio : 2.40:1
    Frame rate mode : Constant
    Frame rate : 23.976 fps
    Color space : YUV
    Chroma subsampling : 4:2:0
    Bit depth : 8 bits
    Scan type : Progressive
    Bits/(Pixel*Frame) : 0.225
    Stream size : 1.66 GiB (94%)
    Title : Hide.and.Seek.2005
    Language : English
    Encoded date : UTC 2014-06-04 15:31:33
    Tagged date : UTC 2014-06-04 15:31:48

    Audio
    ID : 2
    Format : AAC
    Format/Info : Advanced Audio Codec
    Format profile : LC
    Codec ID : 40
    Duration : 1h 40mn
    Bit rate mode : Variable
    Bit rate : 132 Kbps
    Maximum bit rate : 173 Kbps
    Channel(s) : 2 channels
    Channel positions : Front: L R
    Sampling rate : 48.0 KHz
    Compression mode : Lossy
    Stream size : 96.6 MiB (5%)
    Title : Dub
    Language : Russian
    Encoded date : UTC 2014-06-04 15:28:38
    Tagged date : UTC 2014-06-04 15:31:48

    Menu
    ID : 3
    Codec ID : text
    Duration : 1h 40mn
    Encoded date : UTC 2014-06-04 15:32:13
    Tagged date : UTC 2014-06-04 15:32:13
    Bit rate mode : CBR

    x264

    x264 info: frame I:1086 Avg QP:14.16 size: 62566
    x264 info: frame P:29249 Avg QP:16.60 size: 24921
    x264 info: frame B:114771 Avg QP:18.63 size: 8544
    x264 info: consecutive B-frames: 1.7% 2.0% 6.3% 13.6% 21.7% 36.3% 8.9% 3.8% 2.1% 1.4% 0.5% 0.3% 0.4% 0.3% 0.7%
    x264 info: mb I I16..4: 12.7% 58.3% 29.0%
    x264 info: mb P I16..4: 1.0% 7.6% 2.2% P16..4: 29.7% 37.0% 13.3% 4.2% 0.7% skip: 4.5%
    x264 info: mb B I16..4: 0.0% 0.5% 0.2% B16..8: 35.2% 20.2% 3.1% direct: 6.6% skip:34.2% L0:38.9% L1:42.7% BI:18.5%
    x264 info: 8x8 transform intra:68.1% inter:36.0%
    x264 info: coded y,uvDC,uvAC intra: 91.8% 60.9% 35.2% inter: 23.3% 9.8% 2.8%
    x264 info: i16 v,h,dc,p: 13% 9% 14% 64%
    x264 info: i8 v,h,dc,ddl,ddr,vr,hd,vl,hu: 13% 9% 9% 9% 12% 12% 11% 12% 13%
    x264 info: i4 v,h,dc,ddl,ddr,vr,hd,vl,hu: 14% 8% 6% 10% 14% 13% 11% 12% 12%
    x264 info: i8c dc,h,v,p: 26% 35% 23% 16%
    x264 info: Weighted P-Frames: Y:5.9% UV:2.6%
    x264 info: ref P L0: 55.8% 7.9% 15.6% 6.7% 4.5% 3.3% 2.5% 1.4% 1.2% 1.0% 0.1% 0.0%
    x264 info: ref B L0: 81.8% 8.3% 4.1% 1.9% 1.3% 1.0% 0.8% 0.5% 0.3%
    x264 info: ref B L1: 93.6% 6.4%
    x264 info: kb/s:2349.49
    iTunes tags


    Sort Name: Hide and Seek
    XID: Apple:vendor_id:2005-77142
    Content ID: 272726898
    Copyright: 20th Century Fox Film Corporation, Fox 2000 Pictures, Josephson Entertainment
    ScreenWriters: Эри Шлоссберг
    Producers: Барри Джозефсон, Джозеф М. Карачиоло мл., Дэна Робин
    Director: Джон Полсон
    Cast: Роберт Де Ниро, Дакота Фаннинг, Фамке Янссен, Элизабет Шу, Эми Ирвинг, Дилан Бейкер, Мелисса Лео, Роберт Джон Бёрк, Молли Грант Кэллинс, Дэвид Чандлер // Robert De Niro (David Callaway), Dakota Fanning (Emily Callaway), Famke Janssen (Katherine), Elisabeth Shue (Elizabeth), Amy Irving (Alison Callaway), Dylan Baker (Sheriff Hafferty), Melissa Leo (Laura), Robert John Burke (Steven)
    Rating: R
    Long Deion: Отец-вдовец отчаянно пытается пробиться к своей 9-летней дочери, создавшей себе подлого маниакального воображаемого друга, одержимого идеей мести отцу. Однако воображаемые друзья могут войти и в реальную жизнь…
    Deion: Отец-вдовец отчаянно пытается пробиться к своей 9-летней дочери, создавшей себе подлого маниакального воображаемого друга, одержимого идеей мести отцу. Однако воображаемые друзья могут войти и в реальную жизнь…
    Release Date: 2005-07-05T07:00:00Z
    Genre: Horror
    Artist: John Polson
    Name: Игра в прятки
    Comments: Кто не спрятался - я не виноват






    Залил: gekka
    Размер скачиваемого торрента: 1.76 GB (1884521727 Bytes)

    Игра в прятки / Hide and Seek (2005) BDRip-AVC | iPad | D скачать через торрент бесплатно
    загрузка...
    Рейтинг →
     (голосов: 1, оценка 4/5, голосовать можно 1 раз )

    Другие торренты по теме:

  • Карточная игра в дурака (2013) PC | Лицензия
  • Игра в поддавки (2013) WEBRip
  • Игра в ложь / The Lying Game (2012) HDTVRip | DreamRecords
  • Грязный Гарри 5: Игра в смерть / Dirty Harry 5: The Dead Pool (1988) BDRip 1080p
  • Воля к победе / Игра в атаке / Стремительные Сингхи / Breakaway / Speedy Singh (2011) SATRip от Files-x | P
  • Игра в прятки / Прячься и кричи / Hide and go shriek (1988) DVDRip от olegek70 | P
  • Игра в ложь / The Lying Game (2011-2013) WEB-DLRip
  • Грязный Гарри 5: Игра в смерть / Dirty Harry 5: The Dead Pool (1988) BDRip 720p от MediaClub скачать через торрент бесплатно


    • Комментарии (0):

      Информация

      Информация

        Посетители, находящиеся в группе Гости, не могут оставлять комментарии в данной новости.

        ↓ Меню



        ↓ Опрос

        А Вы добавили сайт в закладки?
        Да
        Не


        Top 10 за месяц (Фильмы)