.
Авторизация | Регистрация
» » Ограбление на Бейкер-Стрит / The Bank Job (2008) BDRip 1080p by msltel | D, A скачать через торрент бесплатно




    Ограбление на Бейкер-Стрит / The Bank Job (2008) BDRip 1080p by msltel | D, A скачать через торрент бесплатно

    Опубликовал: Админ | Дата: 27-02-2015, 11:10 | Просмотров: 159



    Русское название: Ограбление на Бейкер-Стрит
    Русское название в мировом прокате: The Bank Job
    Создали в: 2008
    Категория жанра: Триллер, драма, криминал
    Снималось в: Великобритания, США, Atlas Entertainment, Mosaic Media Group, Omnilab Media, Relativity Media, Skyline (Baker St)
    Главный режиссер: Роджер Дональдсон
    Актеры: Джейсон Стэйтем, Саффрон Берроуз, Стивен Кэмпбелл Мур, Дэниэл Мейс, Джеймс Фолкнер, Алки Дэвид, Майкл Джибсон, Джорджия Тейлор, Ричард Линтерн, Питер Боулз, Алистэр Петри, Хэтти Морахэн, Джулиан Льюис Джонс, Эндрю Брук, Руперт Фрейзер, Кристофер Оуэн, Кили Хоуз, Талор Самуэйс, Кэйси Бэйтрип, Дон Галлахер, Крэйг Фэйрбрасс, Джерард Хоран, Роберт Уайтлок, Дэвид Суше, Питер Де Джерси, Йохан Майерс, Колин Сэлмон, Шэрон Мофан, Рэй Николас, Лес Кенни-Грин, Джэми Кенна, Энгус Райт, Марк Феникс, Джеймс Холл, Камерон Андерсон, Джулиан Фёрт, Норма Д

    Сюжет фильма: Фильм основан на реальных событиях, происходивших в Великобритании в 1971 году. После 35 лет забвения мы наконец узнаём об одном из самых легендарных ограблений банка в истории Великобритании, когда не было произведено ни одного ареста и не было найдено ни малейшего следа похищенных денег. Налёт на банк на Бейкер Стрит был инициирован высокопоставленными официальными лицами, пытающимися добраться до заветной банковской ячейки, в которой хозяйка одного из известнейших борделей Лондона хранила секретную информацию. Теперь запрет на разглашение информации об этом ограблении снят британским правительством, и перед нами открывается красочная, лихо закрученная, история, полная тайн, сюрпризов и неожиданных поворотов.

    Качество фильма: BDRip 1080p
    Размер скачиваемого торрента: 14.07 ГБ
    Время просмотра: 01:52:01

    Информация о видео: MPEG-4 AVC, 10.3 Mбит/с, 1920x816
    Информация о звуке 1: русский, 48 kHz, DTS, 6 ch, 1509 kbps avg, Дублированный
    Информация о звуке 2: русский, 48 kHz, DTS, 6 ch, 1509 kbps avg, Авторский, Андрей Гаврилов
    Информация о звуке 3: русский, 48 kHz, DTS, 6 ch, 1509 kbps avg, Авторский, Юрий Немахов

    Внешние файлы
    Информация о звуке: русский, 48 kHz, AC3, 6 ch, 448 kbps avg, Дублированный
    Информация о звуке: русский, 48 kHz, AC3, 6 ch, 448 kbps avg, Авторский, Андрей Гаврилов
    Информация о звуке: русский, 48 kHz, AC3, 6 ch, 448 kbps avg, Авторский, Юрий Немахов
    Информация о звуке: английский, 48 kHz, DTS, 6 ch, 1509 kbps avg, Оригинал
    Субтитры: русские

    Исходник: morov (HDtracker)

    Сравнение с исходником



    MediaInfo +Лог х264
    Общее
    Полное имя : D:VideoOgrablenie na Bejker-Strit.2008.BDRip.1080pOgrablenie na Bejker-Strit.2008.AVO.rus.А.Гаврилов.ac3
    Формат : AC-3
    Формат/Информация : Audio Coding 3
    Размер файла : 359 Мбайт
    Продолжительность : 1 ч. 52 м.
    Режим общего битрейта : Постоянный
    Общий поток : 448 Кбит/сек

    Аудио
    Формат : AC-3
    Формат/Информация : Audio Coding 3
    Расширение режима : CM (complete main)
    Параметр Endianness формата : Big
    Продолжительность : 1 ч. 52 м.
    Вид битрейта : Постоянный
    Битрейт : 448 Кбит/сек
    Каналы : 6 каналов
    Расположение каналов : Front: L C R, Side: L R, LFE
    Частота : 48,0 КГц
    Битовая глубина : 16 бит
    Метод сжатия : С потерями
    Размер потока : 359 Мбайт (100%)

    Общее
    Полное имя : D:VideoOgrablenie na Bejker-Strit.2008.BDRip.1080pOgrablenie na Bejker-Strit.2008.AVO.rus.Ю.Немахов.ac3
    Формат : AC-3
    Формат/Информация : Audio Coding 3
    Размер файла : 359 Мбайт
    Продолжительность : 1 ч. 52 м.
    Режим общего битрейта : Постоянный
    Общий поток : 448 Кбит/сек

    Аудио
    Формат : AC-3
    Формат/Информация : Audio Coding 3
    Расширение режима : CM (complete main)
    Параметр Endianness формата : Big
    Продолжительность : 1 ч. 52 м.
    Вид битрейта : Постоянный
    Битрейт : 448 Кбит/сек
    Каналы : 6 каналов
    Расположение каналов : Front: L C R, Side: L R, LFE
    Частота : 48,0 КГц
    Битовая глубина : 16 бит
    Метод сжатия : С потерями
    Размер потока : 359 Мбайт (100%)

    Общее
    Уникальный идентификатор : 214830425344672897417799215702891071700 (0xA19ED5BCE7120243B90C3CB5DE4088D4)
    Полное имя : D:VideoOgrablenie na Bejker-Strit.2008.BDRip.1080pOgrablenie na Bejker-Strit.2008.BDRip.1080p.mkv
    Формат : Matroska
    Версия формата : Version 4 / Version 2
    Размер файла : 11,8 Гбайт
    Продолжительность : 1 ч. 52 м.
    Общий поток : 15,1 Мбит/сек
    Дата кодирования : UTC 2014-06-04 00:51:16
    Программа кодирования : mkvmerge v6.9.1 (;Blue Panther;) 64bit built on Apr 18 2014 18:23:38
    Библиотека кодирования : libebml v1.3.0 + libmatroska v1.4.1

    Видео
    Идентификатор : 1
    Формат : AVC
    Формат/Информация : Advanced Video Codec
    Профиль формата : High@L4.1
    Параметр CABAC формата : Да
    Параметр ReFrames формата : 4 кадра
    Идентификатор кодека : V_MPEG4/ISO/AVC
    Продолжительность : 1 ч. 52 м.
    Битрейт : 10,3 Мбит/сек
    Ширина : 1920 пикселей
    Высота : 816 пикселей
    Соотношение сторон : 2,35:1
    Режим частоты кадров : Постоянный
    Частота кадров : 23,976 кадра/сек
    Цветовое пространство : YUV
    Субдискретизация насыщенности : 4:2:0
    Битовая глубина : 8 бит
    Тип развёртки : Прогрессивная
    Бит/(Пиксели*Кадры) : 0.274
    Размер потока : 8,05 Гбайт (68%)
    Заголовок : BDRip -- STarankov
    Библиотека кодирования : x264 core 138 r2358 9e941d1
    Залил: msltel
    Размер скачиваемого торрента: 14.07 GB (15103219484 Bytes)


    Ограбление на Бейкер-Стрит / The Bank Job (2008) BDRip 1080p by msltel | D, A скачать через торрент бесплатно
    загрузка...
    Рейтинг →
     (голосов: 1, оценка 4/5, голосовать можно 1 раз )

    Другие торренты по теме:

  • Ограбление на Бейкер-Стрит / The Bank Job (2008) HDRip от iFilmsGroup торрент скачать бесплатно
  • Ограбление казино / Killing Them Softly (2012) DVDRip | L1 торрент скачать бесплатно
  • OST - Ограбление казино / Killing Them Softly (2012) MP3 торрент скачать бесплатно
  • Расправа будет короткой / Ограбление казино / Killing Them Softly (2012) BDRip-AVC | L1 | Doctor Joker торрент скачать бесплатно
  • Вооружённое ограбление / Mains armees (2012) HDRip | L1 торрент скачать бесплатно
  • Ограбление по-итальянски / The Italian Job (2003) HDDVD Remux 1080p от MediaClub торрент скачать бесплатно
  • Большое ограбление банды Ольсена / Olsen Bandens store kup (1972) BDRip-AVC от Тorrent-Хzona торрент скачать бесплатно
  • Ограбление на Бейкер-Стрит / The Bank Job (2008) BDRip-AVC | A торрент скачать бесплатно


    • Комментарии (0):

      Информация

      Информация

        Посетители, находящиеся в группе Гости, не могут оставлять комментарии в данной новости.

        ↓ Меню



        ↓ Опрос

        А Вы добавили сайт в закладки?
        Да
        Не


        Top 10 за неделю (Фильмы)

        Ёлки 5 (2016) WEB-DLRip скачать торрент бесплатно

        (просмотров: 2481)
        Разрушение / Demolition (2015) BDRemux 1080p от ExKinoRay | L скачать торрент бесплатно

        (просмотров: 1111)
        Мой парень – киллер / Mr. Right (2015) WEB-DL 1080p | L скачать торрент бесплатно

        (просмотров: 1051)
        Экипаж (2016) BDRip от New-Team | D | Лицензия скачать торрент бесплатно
        АНОНСЫ МОИХ РАЗДАЧ
        (просмотров: 901)
        Экипаж (2016) BDRip от New-Team | D | Лицензия скачать торрент бесплатно
        АНОНСЫ МОИХ РАЗДАЧ
        (просмотров: 901)
        Гений / Genius (2016) WEB-DLRip 1080p | Звук TS скачать торрент бесплатно

        (просмотров: 891)
        Демон внутри / Вскрытие Джейн Доу / The Autopsy of Jane Doe (2016) WEB-DLRip от Scarabey | P скачать торрент бесплатно
        Мы В КОНТАКТЕ =)
        (просмотров: 811)
        Кухня (1-5 сезоны: 1-100 серии из 100 + 2 бонуса) / 2012-2015 / РУ / DVDRip, WEB-DLRip скачать торрент бесплатно

        (просмотров: 811)
        Бригада (2002) HDDVDRip-AVC от TORRENT-45

        (просмотров: 811)
        Равные / Equals (2015) WEB-DLRip | L2 скачать торрент бесплатно

        (просмотров: 811)