.
Авторизация | Регистрация
» » Абсолютная власть / Absolute Power (1997) BDRip от New-Team торрент скачать бесплатно




    Абсолютная власть / Absolute Power (1997) BDRip от New-Team торрент скачать бесплатно

    Опубликовал: Админ | Дата: 27-02-2015, 11:10 | Просмотров: 174


    Снималось в: США
    Создали в: Castle Rock Entertainment, Malpaso Productions

    Категория жанра: триллер, драма, криминал
    Создали в: 1997
    Время просмотра: 02:01:09

    Перевод текста: Профессиональный (многоголосый закадровый)
    Оригинальная аудиодорожка: нет
    Субтитры подготовлены: нет

    Главный режиссер: Клинт Иствуд / Clint Eastwood

    Актеры:
    Клинт Иствуд (Luther Whitney), Джин Хэкмен (President Allen Richmond), Эд Харрис (Seth Frank), Лора Линни (Kate Whitney), Скотт Гленн (Bill Burton), Деннис Хейсбёрт (Tim Collin), Джуди Дэвис (Gloria Russell), Э. Г. Маршалл (Walter Sullivan), Мелора Хардин (Christy Sullivan), Кеннет Уэлш (Sandy Lord), Пенни Джонсон (Laura Simon), Ричард Дженкинс (Michael McCarty)...

    Сюжет:
    Лютер Уитни — гениальный вор драгоценностей. Он свое отсидел еще тридцать лет назад. С тех пор не имел никаких дел с полицией. А тут — черт попутал. Основательно подготовившись, он забрался в роскошный особняк знаменитого филантропа Салливана и стянул женских украшений на многие-многие тысячи. Но в этот момент в спальню вошли мужчина и женщина. Женщина — Кристи, супруга Салливана, мужчина — страшно подумать — президент Соединенных Штатов Ричмонд! Уитни спрятался и наблюдал, как любовный флирт перерос в борьбу. Президент проявил склонность к садизму, а Кристи взялась за нож для резки бумаги и ранила партнера. В спальню ворвались охранники, и Кристи застрелили. К несчастью, Уитни не удалось остаться инкогнито, хотя он и сумел сбежать…




    Исходник: BDRemux 1080p
    Тип релиза: BDRip
    Контейнер: AVI

    Информация о видео: 688x288 (2,40:1), 23,976 fps, XviD ~ 724 kbps avg, 0.152 bit/pixel
    Информация о звуке: 48 kHz, MP3 2,0, 128 kbps

    Раздача от:
    MediaInfo

    Общее
    Полное имя : Absolutnaya.vlast.1997.BDRip-745_New-team_by_AVP_Studio.avi
    Формат : AVI
    Формат/Информация : Audio Video Interleave
    Размер файла : 746 Мбайт
    Продолжительность : 2 ч. 1 м.
    Общий поток : 861 Кбит/сек
    Программа кодирования : VirtualDubModRus 1.5.10.2 (build 2542/release)
    Библиотека кодирования : VirtualDubMod build 2542/release

    Видео
    Идентификатор : 0
    Формат : MPEG-4 Visual
    Профиль формата : Advanced Simple@L5
    Параметр BVOP формата : 1
    Параметр QPel формата : Нет
    Параметр GMC формата : Без точки перехода
    Параметр матрицы формата : Выборочная
    Идентификатор кодека : XVID
    Идентификатор кодека/Подсказка : XviD
    Продолжительность : 2 ч. 1 м.
    Битрейт : 724 Кбит/сек
    Ширина : 688 пикселей
    Высота : 288 пикселей
    Соотношение сторон : 2,40:1
    Частота кадров : 23,976 кадра/сек
    Цветовое пространство : YUV
    Субдискретизация насыщенности : 4:2:0
    Битовая глубина : 8 бит
    Тип развёртки : Прогрессивная
    Метод сжатия : С потерями
    Бит/(Пиксели*Кадры) : 0.152
    Размер потока : 627 Мбайт (84%)
    Библиотека кодирования : XviD 73

    Аудио
    Идентификатор : 1
    Формат : MPEG Audio
    Версия формата : Version 1
    Профиль формата : Layer 3
    Идентификатор кодека : 55
    Идентификатор кодека/Подсказка : MP3
    Продолжительность : 2 ч. 1 м.
    Вид битрейта : Постоянный
    Битрейт : 128 Кбит/сек
    Каналы : 2 канала
    Частота : 48,0 КГц
    Метод сжатия : С потерями
    Размер потока : 111 Мбайт (15%)
    Выравнивание : Соединение по промежуткам
    Продолжительность промежутка : 42 мс. (1,00 видеокадр)
    Время предзагрузки промежутка : 504 мс.
    Библиотека кодирования : LAME3.99r
    Залил: AVPStudio
    Размер скачиваемого торрента: 744.90 MB (781082624 Bytes)


    Абсолютная власть / Absolute Power (1997) BDRip от New-Team торрент скачать бесплатно
    загрузка...
    Рейтинг →
     (голосов: 1, оценка 4/5, голосовать можно 1 раз )

    Другие торренты по теме:

  • Абсолютная власть / Absolute Power (1997) BDRip-AVC от ExKinoRay | A торрент скачать бесплатно
  • Абсолютная власть / Absolute Power (1997) BDRip 1080p торрент скачать бесплатно
  • Абсолютная власть / Absolute Power (1997) BDRip от New-Team торрент скачать бесплатно
  • Абсолютная власть / Absolute Power (1997) BDRip-AVC от New-Team скачать через торрент бесплатно
  • Абсолютная власть / Imperium (2016) WEB-DLRip | L скачать торрент бесплатно
  • Абсолютная власть / Imperium (2016) WEB-DLRip 1080p | L скачать торрент бесплатно
  • Абсолютная власть / Imperium (2016) BDRip 720p от ExKinoRay | iTunes скачать торрент бесплатно
  • Абсолютная власть / Imperium (2016) BDRip от ExKinoRay | iTunes скачать торрент бесплатно


    • Комментарии (0):

      Информация

      Информация

        Посетители, находящиеся в группе Гости, не могут оставлять комментарии в данной новости.

        ↓ Меню



        ↓ Опрос

        А Вы добавили сайт в закладки?
        Да
        Не


        Top 10 за неделю (Фильмы)