.
Авторизация | Регистрация
Хочешь лучшие торренты? Добавь свой email!
Добавить
» » Голдфингер / Goldfinger (1964) BDRip 1080p by msltel | D, P, P2, A торрент скачать бесплатно




    Голдфингер / Goldfinger (1964) BDRip 1080p by msltel | D, P, P2, A торрент скачать бесплатно

    Опубликовал: Админ | Дата: 27-02-2015, 11:10 | Просмотров: 214



    Русское название: Голдфингер
    Русское название в мировом прокате: Goldfinger
    Создали в: 1964
    Категория жанра: Боевик, триллер, криминал, приключения
    Снималось в: Великобритания, США, Eon Productions Ltd., United Artists
    Главный режиссер: Гай Хэмилтон
    Актеры: Шон Коннери, Онор Блэкман, Герт Фрёбе, Ширли Итон, Таня Маллет, Гарольд Саката, Бернард Ли, Цец Линдер, Лоис Максвелл, Десмонд Ллевелин, Боб Симмонс, Лес Треймен, Мартин Бенсон, Остин Уиллис, Надя Реджин, Майкл Меллингер

    Сюжет фильма: На этот раз Джеймс Бонд борется со злом в лице международного преступника Голдфингера. Негодяй планирует уничтожить золотой запас США и, таким образом, ввергнуть в пучину хаоса всё капиталистическое общество. Помешать этим дерзким планам может только один человек. При помощи нескольких прекрасных женщин и множества хитроумных приспособлений агент 007 обезвреживает злодея и ликвидирует угрозу банкротства целого государства.

    Качество фильма: BDRip 1080p
    Размер скачиваемого торрента: 16.04 ГБ
    Время просмотра: 01:50:13

    Информация о видео: MPEG-4 AVC, 13 Mбит/с, 1804x1080
    Информация о звуке 1: русский, 48 kHz, DTS, 6 ch, 768 kbps avg, Дублированный
    Информация о звуке 2 русский, 48 kHz, AC3, 6 ch, 448 kbps avg, Профессиональный многоголосый, Карусель
    Информация о звуке 3: русский, 48 kHz, AC3, 6 ch, 448 kbps avg, Профессиональный многоголосый, Киномания
    Информация о звуке 4: русский, 48 kHz, AC3, 6 ch, 448 kbps avg, Профессиональный двухголосый, HTB+
    Информация о звуке 5: русский, 48 kHz, DTS, 6 ch, 1509 kbps avg, Авторский, Леонид Володарский
    Информация о звуке 6: русский, 48 kHz, AC3, 2 ch, 192 kbps avg, Авторский, Андрей Гаврилов
    Информация о звуке 7: русский, 48 kHz, AC3, 6 ch, 448 kbps avg, Авторский, Юрий Живов
    Информация о звуке 8: русский, 48 kHz, AC3, 2 ch, 192 kbps avg, Авторский, Михаил Иванов
    Информация о звуке 9: русский, 48 kHz, AC3, 2 ch, 192 kbps avg, Авторский, Владимир Сонькин

    Внешние файлы
    Информация о звуке: русский, 48 kHz, AC3, 6 ch, 448 kbps avg, Дублированный
    Информация о звуке: русский, 48 kHz, AC3, 6 ch, 448 kbps avg, Авторский, Леонид Володарский
    Информация о звуке: английский, 48 kHz, DTS, 6 ch, 1509 kbps avg, Оригинал
    Информация о звуке: английский, 48 kHz, AC3, 2 ch, 224 kbps avg, комментарий создателей фильма
    Информация о звуке: английский, 48 kHz, AC3, 2 ch, 224 kbps avg, комментарий участников съёмок
    Субтитры: русские (комментарий создателей фильма)
    Субтитры: русские (комментарий участников съёмок)
    Субтитры: русские
    Субтитры: английские

    Имеются поименованные главы/чаптеры.

    Исходник: KpucTo161 (HDtracker)

    Сравнение с исходником



    MediaInfo + Лог х264
    Общее
    Полное имя : D:VideoGoldfinger.1964.BDRip.1080pGoldfinger.1964.AVO.rus.Л.Володарский.ac3
    Формат : AC-3
    Формат/Информация : Audio Coding 3
    Размер файла : 353 Мбайт
    Продолжительность : 1 ч. 50 м.
    Режим общего битрейта : Постоянный
    Общий поток : 448 Кбит/сек

    Аудио
    Формат : AC-3
    Формат/Информация : Audio Coding 3
    Расширение режима : CM (complete main)
    Параметр Endianness формата : Big
    Продолжительность : 1 ч. 50 м.
    Вид битрейта : Постоянный
    Битрейт : 448 Кбит/сек
    Каналы : 6 каналов
    Расположение каналов : Front: L C R, Side: L R, LFE
    Частота : 48,0 КГц
    Битовая глубина : 16 бит
    Метод сжатия : С потерями
    Размер потока : 353 Мбайт (100%)

    Общее
    Уникальный идентификатор : 213901019744829337556867301053033688663 (0xA0EBD681048532E9AA548EC966352E57)
    Полное имя : D:VideoGoldfinger.1964.BDRip.1080pGoldfinger.1964.BDRip.1080p.mkv
    Формат : Matroska
    Версия формата : Version 4 / Version 2
    Размер файла : 13,8 Гбайт
    Продолжительность : 1 ч. 50 м.
    Общий поток : 18,0 Мбит/сек
    Дата кодирования : UTC 2014-06-04 13:35:29
    Программа кодирования : mkvmerge v6.9.1 (;Blue Panther;) 64bit built on Apr 18 2014 18:23:38
    Библиотека кодирования : libebml v1.3.0 + libmatroska v1.4.1

    Видео
    Идентификатор : 1
    Формат : AVC
    Формат/Информация : Advanced Video Codec
    Профиль формата : High@L4.1
    Параметр CABAC формата : Да
    Параметр ReFrames формата : 4 кадра
    Идентификатор кодека : V_MPEG4/ISO/AVC
    Продолжительность : 1 ч. 50 м.
    Битрейт : 13,0 Мбит/сек
    Ширина : 1804 пикселя
    Высота : 1080 пикселей
    Соотношение сторон : 1,670
    Режим частоты кадров : Постоянный
    Частота кадров : 23,976 кадра/сек
    Цветовое пространство : YUV
    Субдискретизация насыщенности : 4:2:0
    Битовая глубина : 8 бит
    Тип развёртки : Прогрессивная
    Бит/(Пиксели*Кадры) : 0.278
    Размер потока : 10,00 Гбайт (72%)
    Заголовок : BDRip -- STarankov
    Библиотека кодирования : x264 core 138 r2358 9e941d1
    Залил: msltel
    Размер скачиваемого торрента: 16.04 GB (17223602025 Bytes)


    Голдфингер / Goldfinger (1964) BDRip 1080p by msltel | D, P, P2, A торрент скачать бесплатно
    загрузка...
    Рейтинг →
     (голосов: 1, оценка 3/5, голосовать можно 1 раз )

    Другие торренты по теме:

  • Голдфингер / Goldfinger (1964) BDRip-AVC | iPhone
  • Джеймс Бонд. Агент 007: Голдфингер / James Bond: Goldfinger (1964) BDRip 1080p
  • Голдфингер / Goldfinger (1964) BDRip by msltel | D, P, P2, A
  • Голдфингер / Goldfinger (1964) BDRip 720p by msltel | D, P, P2, A скачать через торрент бесплатно
  • 007: Голдфингер / Goldfinger (1964) HDRip от Scarabey | D


    • Комментарии (0):

      Информация

      Информация

        Посетители, находящиеся в группе Гости, не могут оставлять комментарии в данной новости.

        ↓ Меню



        ↓ Опрос

        А Вы добавили сайт в закладки?
        Да
        Не


        Top 10 за месяц (Фильмы)