.
Авторизация | Регистрация
Хочешь лучшие торренты? Добавь свой email!
Добавить
» » Вулкан / Volcano (1997) BDRip от New-Team | D торрент скачать бесплатно




    Вулкан / Volcano (1997) BDRip от New-Team | D торрент скачать бесплатно

    Опубликовал: Админ | Дата: 27-02-2015, 11:10 | Просмотров: 235


    Снималось в: США
    Создали в: 20th Century Fox Film Corporation, Donner/Shuler-Donner Productions, Fox 2000 Pictures, Moritz Original

    Категория жанра: катастрофа, драма
    Создали в: 1997
    Время просмотра: 01:43:51

    Перевод текста: Профессиональный (полное дублирование)
    Оригинальная аудиодорожка: нет
    Субтитры подготовлены: нет

    Главный режиссер: Мик Джексон / Mick Jackson

    Актеры:
    Томми Ли Джоунс, Энн Хейч, Гэби Хоффманн, Дон Чидл, Жаклин Ким, Кит Дэвид, Джон Корбетт, Майкл Рисполи, Джон Кэрролл Линч...

    Роли дублировали:
    Геннадий Богачёв, Елена Павловская, Вадим Гущин, Татьяна Иванова, Станислав Концевич...

    Сюжет:
    Лос — Анджелес на своем веку достаточно повидал стихийных бедствий: землетрясений, пожаров, наводнений. Но сейчас городу ангелов предстоит столкнуться с самой страшной из когда — либо переживаемых им катастроф, которая грозит стереть его с лица земли. В одном из самых населенных районов Лос — Анджелеса внезапно пришел в активное действие вулкан. Раскаленная, грозящая смертью лава уже начала выплескиваться на улицы, запруженные автомобилями. Но, как всегда, герой появляется вовремя — на этот раз в облике мужественного офицера службы спасения в случае стихийных бедствий, который возглавляет борьбу со стихией…




    Исходник: BDRemux 1080p
    Тип релиза: BDRip
    Контейнер: AVI

    Информация о видео: 656x368 (16:9), 23,976 fps, XviD ~ 866 kbps avg, 0.150 bit/pixel
    Информация о звуке: 48 kHz, MP3 2,0, 128 kbps

    Раздача от:
    MediaInfo

    Общее
    Полное имя : Vulkan.1997.BDRip_New-team_by_AVP_Studio.avi
    Формат : AVI
    Формат/Информация : Audio Video Interleave
    Размер файла : 745 Мбайт
    Продолжительность : 1 ч. 43 м.
    Общий поток : 1003 Кбит/сек
    Программа кодирования : VirtualDubModRus 1.5.10.2 (build 2542/release)
    Библиотека кодирования : VirtualDubMod build 2542/release

    Видео
    Идентификатор : 0
    Формат : MPEG-4 Visual
    Профиль формата : Advanced Simple@L5
    Параметр BVOP формата : 1
    Параметр QPel формата : Нет
    Параметр GMC формата : Без точки перехода
    Параметр матрицы формата : Выборочная
    Идентификатор кодека : XVID
    Идентификатор кодека/Подсказка : XviD
    Продолжительность : 1 ч. 43 м.
    Битрейт : 866 Кбит/сек
    Ширина : 656 пикселей
    Высота : 368 пикселей
    Соотношение сторон : 16:9
    Частота кадров : 23,976 кадра/сек
    Цветовое пространство : YUV
    Субдискретизация насыщенности : 4:2:0
    Битовая глубина : 8 бит
    Тип развёртки : Прогрессивная
    Метод сжатия : С потерями
    Бит/(Пиксели*Кадры) : 0.150
    Размер потока : 643 Мбайт (86%)
    Библиотека кодирования : XviD 73

    Аудио
    Идентификатор : 1
    Формат : MPEG Audio
    Версия формата : Version 1
    Профиль формата : Layer 3
    Идентификатор кодека : 55
    Идентификатор кодека/Подсказка : MP3
    Продолжительность : 1 ч. 43 м.
    Вид битрейта : Постоянный
    Битрейт : 128 Кбит/сек
    Каналы : 2 канала
    Частота : 48,0 КГц
    Метод сжатия : С потерями
    Размер потока : 95,1 Мбайт (13%)
    Выравнивание : Соединение по промежуткам
    Продолжительность промежутка : 42 мс. (1,00 видеокадр)
    Время предзагрузки промежутка : 504 мс.
    Библиотека кодирования : LAME3.99r
    Залил: AVPStudio
    Размер скачиваемого торрента: 745.05 MB (781246464 Bytes)


    Вулкан / Volcano (1997) BDRip от New-Team | D торрент скачать бесплатно
    загрузка...
    Рейтинг →
     (голосов: 1, оценка 4/5, голосовать можно 1 раз )

    Другие торренты по теме:

  • VA - Вулкан удовольствий зимний. Сборник 50 / 50 (2013) MP3
  • VA - Вулкан удовольствий зимний. Зарубежный выпуск (2013) MP3
  • Сборник - Зимний вулкан удовольствий. Русский выпуск (2013) MP3
  • Вулкан / Volcano (1997) BDRemux 1080p от MediaClub | D, P, A
  • Вулкан / Volcano (1997) BDRip 720p от MediaClub | D, P, A скачать через торрент бесплатно
  • Вулкан / Volcano (1997) BDRip от MediaClub | D, P, A
  • Вулкан / Volcano (1997) BDRip-AVC от MediaClub | D, P, A
  • Вулкан / Volcano (1997) BDRip от Rulya74 | D, A


    • Комментарии (0):

      Информация

      Информация

        Посетители, находящиеся в группе Гости, не могут оставлять комментарии в данной новости.

        ↓ Меню



        ↓ Опрос

        А Вы добавили сайт в закладки?
        Да
        Не


        Top 10 за месяц (Фильмы)