.
Авторизация | Регистрация
» » Акула-призрак / Ghost Shark (2013) BDRip 1080p | P2 торрент скачать бесплатно




    Акула-призрак / Ghost Shark (2013) BDRip 1080p | P2 торрент скачать бесплатно

    Опубликовал: Админ | Дата: 27-02-2015, 11:10 | Просмотров: 283



    Акула-призрак / Ghost Shark

    Снималось в: США
    Категория жанра: ужасы, фантастика
    Создали в: 2013
    Время просмотра: 01:27:04
    Тип перевода: Профессиональное (двухголосое) SDI Media
    Главный режиссёр: Грифф Ферст

    Актеры: Роберт Абердин, Джейми Бон, Eliot Brasseaux, Эми Брассетт, Челси Брюленд, Слоун Коу, Ким Коллинз, Дэйв Рэндольф-Мэйем Дэвис, Mark Haya, Брук Харринг

    Сюжет фильма: Ава, ее младшая сестра Сесилия и друг Блейз становятся свидетелями вторжения призрака акулы, но власти отказываются им верить. Воспользовавшись поддержкой хранителя маяка по имени Финч, герои фильма открывают для себя, что спектральная акула может охотиться буквально везде, где есть вода, и что темное прошлое города скрывает улики, которые помогут им победить ее.



    Качество фильма: BDRip 1080p
    Тип видео: MKV
    Информация о видео: MPEG-4 AVC / 8529 kb/s / 1920x1080
    Информация о звуке #1: Russian / AC3 / 192 kb/s (2 ch) - DVO SDI Media
    Информация о звуке #2: English / AC3 / 448 kb/s (6 ch) - Original
    Субтитры: English
    Дополнительно: Сохранены оригинальные чаптеры как на Blu-Ray
    Скачать: Sample

    Скриншоты для ознакомления

    МедиаИнфо
    Общее
    Уникальный идентификатор : 250618681569427679124805897914078932790 (0xBC8B670021675FF68DFC5E5C0FB72F36)
    Полное имя : D:Ghost Shark 2013 Unrated HDR BDRip 1080p.mkv
    Формат : Matroska
    Версия формата : Version 4 / Version 2
    Размер файла : 5,58 Гбайт
    Продолжительность : 1 ч. 27 м.
    Общий поток : 9170 Кбит/сек
    Название фильма : Ghost Shark 2013 Unrated HDR BDRip 1080p
    Дата кодирования : UTC 2014-06-04 21:38:09
    Программа кодирования : mkvmerge v6.9.1 (;Blue Panther;) 64bit built on Apr 18 2014 18:23:38
    Библиотека кодирования : libebml v1.3.0 + libmatroska v1.4.1
    Attachment : Yes

    Видео
    Идентификатор : 1
    Формат : AVC
    Формат/Информация : Advanced Video Codec
    Профиль формата : High@L4.1
    Параметр CABAC формата : Да
    Параметр ReFrames формата : 4 кадра
    Идентификатор кодека : V_MPEG4/ISO/AVC
    Продолжительность : 1 ч. 27 м.
    Битрейт : 8529 Кбит/сек
    Ширина : 1920 пикселей
    Высота : 1080 пикселей
    Соотношение сторон : 16:9
    Режим частоты кадров : Постоянный
    Частота кадров : 23,976 кадра/сек
    Цветовое пространство : YUV
    Субдискретизация насыщенности : 4:2:0
    Битовая глубина : 8 бит
    Тип развёртки : Прогрессивная
    Бит/(Пиксели*Кадры) : 0.172
    Размер потока : 5,08 Гбайт (91%)
    Заголовок : Ghost Shark 2013 Unrated HDR BDRip 1080p
    Библиотека кодирования : x264 core 138 r2358 9e941d1
    Настройки программы : cabac=1 / ref=4 / deblock=1:0:0 / analyse=0x3:0x133 / me=umh / subme=7 / psy=1 / psy_rd=1.00:0.00 / mixed_ref=1 / me_range=16 / chroma_me=1 / trellis=1 / 8x8dct=1 / cqm=0 / deadzone=21,11 / fast_pskip=0 / chroma_qp_offset=-2 / threads=18 / lookahead_threads=3 / sliced_threads=0 / nr=0 / decimate=1 / interlaced=fake / bluray_compat=0 / constrained_intra=0 / bframes=3 / b_pyramid=2 / b_adapt=1 / b_bias=0 / direct=1 / weightb=1 / open_gop=0 / weightp=2 / keyint=240 / keyint_min=23 / scenecut=40 / intra_refresh=0 / rc_lookahead=40 / rc=2pass / mbtree=1 / bitrate=8529 / ratetol=1.0 / qcomp=0.60 / qpmin=10 / qpmax=69 / qpstep=4 / cplxblur=20.0 / qblur=0.5 / ip_ratio=1.40 / aq=1:1.00
    Язык : English
    Default : Да
    Forced : Нет

    Аудио #1
    Идентификатор : 2
    Формат : AC-3
    Формат/Информация : Audio Coding 3
    Расширение режима : CM (complete main)
    Параметр Endianness формата : Big
    Идентификатор кодека : A_AC3
    Продолжительность : 1 ч. 27 м.
    Вид битрейта : Постоянный
    Битрейт : 192 Кбит/сек
    Каналы : 2 канала
    Расположение каналов : Front: L R
    Частота : 48,0 КГц
    Битовая глубина : 16 бит
    Метод сжатия : С потерями
    Размер потока : 120 Мбайт (2%)
    Заголовок : DVO SDI Media
    Язык : Russian
    Default : Да
    Forced : Нет

    Аудио #2
    Идентификатор : 3
    Формат : AC-3
    Формат/Информация : Audio Coding 3
    Расширение режима : CM (complete main)
    Параметр Endianness формата : Big
    Идентификатор кодека : A_AC3
    Продолжительность : 1 ч. 27 м.
    Вид битрейта : Постоянный
    Битрейт : 448 Кбит/сек
    Каналы : 6 каналов
    Расположение каналов : Front: L C R, Side: L R, LFE
    Частота : 48,0 КГц
    Битовая глубина : 16 бит
    Метод сжатия : С потерями
    Размер потока : 279 Мбайт (5%)
    Заголовок : Original
    Язык : English
    Default : Нет
    Forced : Нет

    Текст
    Идентификатор : 4
    Формат : UTF-8
    Идентификатор кодека : S_TEXT/UTF8
    Идентификатор кодека/Информация : UTF-8 Plain Text
    Заголовок : Full
    Язык : English
    Default : Нет
    Forced : Нет

    Меню
    00:00:00.000 : en:Chapter 01
    00:09:59.974 : en:Chapter 02
    00:19:59.990 : en:Chapter 03
    00:29:59.964 : en:Chapter 04
    00:39:59.980 : en:Chapter 05
    00:49:59.997 : en:Chapter 06
    00:59:59.971 : en:Chapter 07
    01:09:59.987 : en:Chapter 08
    01:19:59.961 : en:Chapter 09

    Размер скачиваемого торрента: 5.58 GB (5987465356 Bytes)

    Акула-призрак / Ghost Shark (2013) BDRip 1080p | P2 торрент скачать бесплатно
    загрузка...
    Рейтинг →
     (голосов: 1, оценка 3/5, голосовать можно 1 раз )

    Другие торренты по теме:

  • Акула-призрак / Ghost Shark (2013) BDRip 720p | P скачать через торрент бесплатно
  • Акула-призрак / Ghost Shark (2013) HDRip | P скачать через торрент бесплатно


    • Комментарии (0):

      Информация

      Информация

        Посетители, находящиеся в группе Гости, не могут оставлять комментарии в данной новости.

        ↓ Меню



        ↓ Опрос

        А Вы добавили сайт в закладки?
        Да
        Не


        Top 10 за неделю (Фильмы)