.
Авторизация | Регистрация
Хочешь лучшие торренты? Добавь свой email!
Добавить
» » 300 спартанцев: Расцвет империи / 300: Rise of an Empire (2014) BDRip 720p | D | iTunes скачать через торрент бесплатно




    300 спартанцев: Расцвет империи / 300: Rise of an Empire (2014) BDRip 720p | D | iTunes скачать через торрент бесплатно

    Опубликовал: Админ | Дата: 27-02-2015, 11:10 | Просмотров: 205



    300 спартанцев: Расцвет империи / 300: Rise of an Empire

    Создали в: 2014
    Снималось в: США
    Категория жанра: фэнтези, боевик, драма, военный
    Время просмотра: 01:42:36
    Тип перевода: Профессиональное (дублированное)
    Главный режиссёр: Ноам Мурро

    Актеры: Салливан Степлтон, Ева Грин, Лина Хиди, Ханс Мэтисон, Родриго Санторо, Андрей Клод, Дэвид Уэнэм, Джек О`Коннелл, Марк Киллин, Эндрю Тирнан

    Сюжет фильма: После победы над царем Леонидом персидская армия во главе с Ксерксом движется на юг. На её пути оказывается флот Афин под руководством адмирала Фемистокла. Силы противников не равны, и Фемистокл вынужден вступить в союз с заклятым врагом афинского государства Спартой. Только объединившись у враждующих полисов-государств есть шанс что-то противопоставить могущественному Ксерксу.



    Качество фильма: BDRip 720p
    Тип видео: MKV
    Информация о видео: MPEG-4 AVC / 6900 kb/s / 1280x534
    Информация о звуке #1: Russian / AC3 / 384 kb/s (6 ch) - Dub iTunes
    Информация о звуке #2: Ukrainian / AC3 / 192 kb/s (2 ch) - Dub iTunes
    Информация о звуке #3: English / DTS / 1536 kb/s (6 ch) - Original
    Информация о звуке #4: English / AC3 / 640 kb/s (6 ch) - Original
    Субтитры: Russian, Ukrainian, English
    Дополнительно: Сохранены оригинальные чаптеры как на Blu-Ray
    Скачать: Sample

    Скриншоты для ознакомления

    МедиаИнфо
    Общее
    Уникальный идентификатор : 210238200169263248934275552519144450592 (0x9E2A678E5C693889B64C0E765569AA20)
    Полное имя : D:300 Rise of an Empire 2014 HDR BDRip 720p.mkv
    Формат : Matroska
    Версия формата : Version 4 / Version 2
    Размер файла : 6,90 Гбайт
    Продолжительность : 1 ч. 42 м.
    Общий поток : 9628 Кбит/сек
    Название фильма : 300: Rise of an Empire 2014 HDR BDRip 720p
    Дата кодирования : UTC 2014-06-05 21:15:00
    Программа кодирования : mkvmerge v6.9.1 (;Blue Panther;) 64bit built on Apr 18 2014 18:23:38
    Библиотека кодирования : libebml v1.3.0 + libmatroska v1.4.1
    Attachment : Yes

    Видео
    Идентификатор : 1
    Формат : AVC
    Формат/Информация : Advanced Video Codec
    Профиль формата : High@L4.1
    Параметр CABAC формата : Да
    Параметр ReFrames формата : 12 кадров
    Идентификатор кодека : V_MPEG4/ISO/AVC
    Продолжительность : 1 ч. 42 м.
    Битрейт : 6900 Кбит/сек
    Ширина : 1280 пикселей
    Высота : 534 пикселя
    Соотношение сторон : 2,40:1
    Режим частоты кадров : Постоянный
    Частота кадров : 23,976 кадра/сек
    Цветовое пространство : YUV
    Субдискретизация насыщенности : 4:2:0
    Битовая глубина : 8 бит
    Тип развёртки : Прогрессивная
    Бит/(Пиксели*Кадры) : 0.421
    Размер потока : 4,81 Гбайт (70%)
    Заголовок : 300: Rise of an Empire 2014 HDR BDRip 720p
    Библиотека кодирования : x264 core 142 r2409+42 04be48a tMod 8-bit@4:2:0 X86_64
    Настройки программы : cabac=1 / ref=12 / deblock=1:-3:-3 / analyse=0x3:0x113 / me=umh / subme=11 / psy=1 / fade_compensate=0.00 / psy_rd=1.10:0.05 / mixed_ref=1 / me_range=32 / chroma_me=1 / trellis=2 / 8x8dct=1 / cqm=0 / deadzone=21,11 / fast_pskip=0 / chroma_qp_offset=-3 / threads=18 / lookahead_threads=3 / sliced_threads=0 / nr=0 / decimate=0 / interlaced=0 / bluray_compat=0 / constrained_intra=0 / fgo=0 / bframes=8 / b_pyramid=2 / b_adapt=2 / b_bias=0 / direct=3 / weightb=1 / open_gop=0 / weightp=2 / keyint=240 / keyint_min=24 / scenecut=40 / intra_refresh=0 / rc_lookahead=40 / rc=2pass / mbtree=0 / bitrate=6900 / ratetol=1.0 / qcomp=0.70 / qpmin=0:0:0 / qpmax=69:69:69 / qpstep=4 / cplxblur=20.0 / qblur=0.5 / vbv_maxrate=40000 / vbv_bufsize=30000 / nal_hrd=none / filler=0 / ip_ratio=1.20 / pb_ratio=1.20 / aq=4:0.75 / aq-sensitivity=10.00 / aq-factor=1.00:1.00:1.00 / aq2=0 / aq3=0
    Язык : English
    Default : Да
    Forced : Нет

    Аудио #1
    Идентификатор : 2
    Формат : AC-3
    Формат/Информация : Audio Coding 3
    Расширение режима : CM (complete main)
    Параметр Endianness формата : Big
    Идентификатор кодека : A_AC3
    Продолжительность : 1 ч. 42 м.
    Вид битрейта : Постоянный
    Битрейт : 384 Кбит/сек
    Каналы : 6 каналов
    Расположение каналов : Front: L C R, Side: L R, LFE
    Частота : 48,0 КГц
    Битовая глубина : 16 бит
    Метод сжатия : С потерями
    Размер потока : 282 Мбайт (4%)
    Заголовок : Dub iTunes
    Язык : Russian
    Default : Да
    Forced : Нет

    Аудио #2
    Идентификатор : 3
    Формат : AC-3
    Формат/Информация : Audio Coding 3
    Расширение режима : CM (complete main)
    Параметр Endianness формата : Big
    Идентификатор кодека : A_AC3
    Продолжительность : 1 ч. 42 м.
    Вид битрейта : Постоянный
    Битрейт : 192 Кбит/сек
    Каналы : 2 канала
    Расположение каналов : Front: L R
    Частота : 48,0 КГц
    Битовая глубина : 16 бит
    Метод сжатия : С потерями
    Размер потока : 141 Мбайт (2%)
    Заголовок : Dub iTunes
    Язык : Ukrainian
    Default : Нет
    Forced : Нет

    Аудио #3
    Идентификатор : 4
    Формат : DTS
    Формат/Информация : Digital Theater Systems
    Режим : 16
    Параметр Endianness формата : Big
    Идентификатор кодека : A_DTS
    Продолжительность : 1 ч. 42 м.
    Вид битрейта : Постоянный
    Битрейт : 1509 Кбит/сек
    Каналы : 6 каналов
    Расположение каналов : Front: L C R, Side: L R, LFE
    Частота : 48,0 КГц
    Битовая глубина : 24 бит
    Метод сжатия : С потерями
    Размер потока : 1,08 Гбайт (16%)
    Заголовок : Original
    Язык : English
    Default : Нет
    Forced : Нет

    Аудио #4
    Идентификатор : 5
    Формат : AC-3
    Формат/Информация : Audio Coding 3
    Расширение режима : CM (complete main)
    Параметр Endianness формата : Big
    Идентификатор кодека : A_AC3
    Продолжительность : 1 ч. 42 м.
    Вид битрейта : Постоянный
    Битрейт : 640 Кбит/сек
    Каналы : 6 каналов
    Расположение каналов : Front: L C R, Side: L R, LFE
    Частота : 48,0 КГц
    Битовая глубина : 16 бит
    Метод сжатия : С потерями
    Размер потока : 470 Мбайт (7%)
    Заголовок : Original
    Язык : English
    Default : Нет
    Forced : Нет

    Текст #1
    Идентификатор : 6
    Формат : UTF-8
    Идентификатор кодека : S_TEXT/UTF8
    Идентификатор кодека/Информация : UTF-8 Plain Text
    Заголовок : Forced
    Язык : Russian
    Default : Да
    Forced : Нет

    Текст #2
    Идентификатор : 7
    Формат : UTF-8
    Идентификатор кодека : S_TEXT/UTF8
    Идентификатор кодека/Информация : UTF-8 Plain Text
    Заголовок : Full
    Язык : Russian
    Default : Нет
    Forced : Нет

    Текст #3
    Идентификатор : 8
    Формат : UTF-8
    Идентификатор кодека : S_TEXT/UTF8
    Идентификатор кодека/Информация : UTF-8 Plain Text
    Заголовок : Forced
    Язык : Ukrainian
    Default : Нет
    Forced : Нет

    Текст #4
    Идентификатор : 9
    Формат : UTF-8
    Идентификатор кодека : S_TEXT/UTF8
    Идентификатор кодека/Информация : UTF-8 Plain Text
    Заголовок : Full
    Язык : Ukrainian
    Default : Нет
    Forced : Нет

    Текст #5
    Идентификатор : 10
    Формат : UTF-8
    Идентификатор кодека : S_TEXT/UTF8
    Идентификатор кодека/Информация : UTF-8 Plain Text
    Заголовок : Full
    Язык : English
    Default : Нет
    Forced : Нет

    Текст #6
    Идентификатор : 11
    Формат : UTF-8
    Идентификатор кодека : S_TEXT/UTF8
    Идентификатор кодека/Информация : UTF-8 Plain Text
    Заголовок : SDH
    Язык : English
    Default : Нет
    Forced : Нет

    Меню
    00:00:00.000 : en:Chapter 01
    00:10:26.376 : en:Chapter 02
    00:20:54.628 : en:Chapter 03
    00:31:15.290 : en:Chapter 04
    00:40:58.498 : en:Chapter 05
    00:50:50.714 : en:Chapter 06
    01:00:05.435 : en:Chapter 07
    01:09:51.813 : en:Chapter 08
    01:19:51.245 : en:Chapter 09
    01:31:07.295 : en:Chapter 10
    01:33:57.131 : en:Chapter 11

    Размер скачиваемого торрента: 6.90 GB (7409853518 Bytes)

    300 спартанцев: Расцвет империи / 300: Rise of an Empire (2014) BDRip 720p | D | iTunes скачать через торрент бесплатно
    загрузка...
    Рейтинг →
     (голосов: 1, оценка 4/5, голосовать можно 1 раз )

    Другие торренты по теме:

  • 300 спартанцев / 300 (2006) BDRip-AVC | iPad
  • 300 спартанцев / 300 (2006) BDRip 720p от IIIKOJIO3ABP
  • 300 спартанцев: Расцвет империи / 300: Rise of an Empire (2014) 1080p HDTVRip | Трейлер
  • OST - 300 спартанцев: Расцвет империи / 300: Rise of an Empire (2014) MP3 скачать через торрент бесплатно
  • 300 спартанцев: Расцвет империи / 300: Rise of an Empire (2014) CAMRip скачать через торрент бесплатно
  • 300 спартанцев: Расцвет империи / 300: Rise of an Empire (2014) CAMRip *PROPER*
  • 300 спартанцев: Расцвет империи / 300: Rise of an Empire (2014) WEBRip | Звук с CAMRip скачать через торрент бесплатно
  • 300 спартанцев / The 300 Spartans (1962) HDRip от ExKinoRay | D, P, А скачать через торрент бесплатно


    • Комментарии (0):

      Информация

      Информация

        Посетители, находящиеся в группе Гости, не могут оставлять комментарии в данной новости.

        ↓ Меню



        ↓ Опрос

        А Вы добавили сайт в закладки?
        Да
        Не


        Top 10 за месяц (Фильмы)