.
Авторизация | Регистрация
Хочешь лучшие торренты? Добавь свой email!
Добавить
» » Демоны да Винчи / Da Vincis Demons (2014) HDTV 1080i | AlexFilm торрент скачать бесплатно




    Демоны да Винчи / Da Vincis Demons (2014) HDTV 1080i | AlexFilm торрент скачать бесплатно

    Опубликовал: Админ | Дата: 27-02-2015, 11:10 | Просмотров: 287



    Детально о кино
    Русское название: Демоны да Винчи
    Русское название в мировом прокате: Da Vinci;s Demons
    Создали в: 2014
    Категория жанра: драма, приключения
    Главный режиссер: Дэвид С. Гойер, Джейми Пэйн, Пол Уилмсхёрст, Майкл Дж. Бассетт
    Актеры: Том Райли, Лаура Хэддок, Блейк Ритсон, Эллиот Кауэн, Лара Пулвер, Грегг Чиллин, Гера Хилмар, Эрос Влахос, Джеймс Фолкнер, Том Бейтман, Александр Сиддиг, Пол Вествуд, Джан Эрик Мэдсен, Джеймс Бриэн

    Сюжет фильма:
    В мире, где мысль и вера находятся под контролем, один человек борется за то, чтобы сделать знания доступными для всех.
    Не рассказанная история трагичной жизни Леонардо да Винчи раскрывает портрет молодого человека, которого мучает дар гения. Он - еретик, жаждущий раскрыть ложь религии. Бунтарь, стремящийся низвергнуть элитарное общество. Незаконнорожденный сын, требующий от своего отца признания его прав.
    Он оказывается посреди разразившегося урагана страстей, который спал веками. Внутри конфликта между правдой и ложью, религией и интеллектом, прошлым и будущим. Его стремления используются против него противоборствующими силами того времени, вовлекая его в соблазнительную игру, в которой те, кто презирает его ум, нуждаются в нём больше всего.
    Леонардо должен вступить в конфронтацию с теми, кто использует историю, чтобы скрыть истину. Вооружённый лишь собственным гением да Винчи в одиночку противостоит тьме как внутри, так и снаружи.
    Перед лицом неопределённости будущего его поход за знаниями едва не становится для него погибелью, когда он переходит за грань своего здравомыслия. Да Винчи, словно в омут с головой, уходит в собственные гениальные идеи, воплотив которые, становится необоримой силой, вытаскивающей из темноты и поворачивающей к свету целую эпоху.
    Его история становится зеркалом для нашего мира, зовущее всех нас на бой за свободное будущее.



    Снималось в: США
    Киностудия: Starz
    Время просмотра: 00:58:00
    Перевод текста: Профессиональный (многоголосый, закадровый) AlexFilm

    Файл
    Кодек для видео: MPEG Video
    Тип видео: ts
    Качество фильма: HDTV 1080i
    Информация о видео: 1920x1080 , 29.970 fps, ~10.8
    Информация о звуке: Аудио кодек: AC3
    Аудио Rus: 48 kHz, AC3, 6 ch, 384 kbps
    Аудио Eng: 48 kHz, AC3, 6 ch, 384 kbps

    Перевод текста: Doctor Joker и MartinaG
    Монтаж и сведение звука: Михаил Шорыгин
    Роли озвучивали:Евгения Тихонова, Михаил Суслов, Владимир Курдов, Константин Погодаев, Александр Дасевич

    Скриншоты для ознакомления
    Список серий
    01. Кровь человеческая / The Blood of Man
    02. Братья по крови / The Blood of Brothers
    03. Путешествие проклятых / The Voyage of the Damned
    04. Край света / The Ends of the Earth
    05. Солнце и Луна / The Sun and the Moon
    06. Лиана мертвых / The Rope of the Dead
    07. Небесный свод / The Vault of Heaven
    08. Падение с небес / The Fall From Heaven
    09. Враги человечества / The Enemies of Man
    10. Грехи Дедала / The Sins of Daedalus
    MediaInfo
    Format : MPEG-TS
    File size : 4.86 GiB
    Duration : 57mn 7s
    Overall bit rate mode : Variable
    Overall bit rate : 12.2 Mbps
    Maximum Overall bit rate : 35.5 Mbps
    Video
    ID : 4113 (0x1011)
    Menu ID : 1 (0x1)
    Format : MPEG Video
    Format version : Version 2
    Format profile : Main@High
    Format settings, BVOP : Yes
    Format settings, Matrix : Custom
    Format settings, GOP : Variable
    Codec ID : 2
    Duration : 57mn 7s
    Bit rate mode : Variable
    Bit rate : 10.8 Mbps
    Maximum bit rate : 20.0 Mbps
    Width : 1 920 pixels
    Height : 1 080 pixels
    Display aspect ratio : 16:9
    Frame rate : 29.970 fps
    Color space : YUV
    Chroma subsampling : 4:2:0
    Bit depth : 8 bits
    Compression mode : Lossy
    Bits/(Pixel*Frame) : 0.174
    Time code of first frame : 00:00:00;00
    Time code source : Group of pictures t_head
    Stream size : 4.31 GiB (89%)
    Audio #1
    ID : 4352 (0x1100)
    Menu ID : 1 (0x1)
    Format : AC-3
    Format/Info : Audio Coding 3
    Mode extension : CM (complete main)
    Format settings, Endianness : Big
    Codec ID : 129
    Duration : 57mn 7s
    Bit rate mode : Constant
    Bit rate : 384 Kbps
    Channel(s) : 6 channels
    Channel positions : Front: L C R, Side: L R, LFE
    Sampling rate : 48.0 KHz
    Bit depth : 16 bits
    Compression mode : Lossy
    Stream size : 157 MiB (3%)
    Language : Russian
    Audio #2
    ID : 4353 (0x1101)
    Menu ID : 1 (0x1)
    Format : AC-3
    Format/Info : Audio Coding 3
    Mode extension : CM (complete main)
    Format settings, Endianness : Big
    Codec ID : 129
    Duration : 57mn 7s
    Bit rate mode : Constant
    Bit rate : 384 Kbps
    Channel(s) : 6 channels
    Channel positions : Front: L C R, Side: L R, LFE
    Sampling rate : 48.0 KHz
    Bit depth : 16 bits
    Compression mode : Lossy
    Stream size : 157 MiB (3%)
    Language : English
    Text #1
    ID : 4113 (0x1011)-CC1
    Menu ID : 1 (0x1)
    Format : EIA-608
    Muxing mode : A/53 / DTVCC Transport
    Muxing mode, more info : Muxed in Video #1
    Duration : 57mn 7s
    Bit rate mode : Constant
    Stream size : 0.00 Byte (0%)
    Text #2
    ID : 4113 (0x1011)-1
    Menu ID : 1 (0x1)
    Format : EIA-708
    Muxing mode : A/53 / DTVCC Transport
    Muxing mode, more info : Muxed in Video #1
    Duration : 57mn 7s
    Bit rate mode : Constant
    Stream size : 0.00 Byte (0%)
    Раздача ведется путем добавления новых серий
    Когда раздача ведётся путём добавления новых серий, при каждом добавлении создётся новый торрент. Чтобы начать докачку новой серии, пользователям необходимо сделать следующее:
    (1) остановить скачивание,
    (2) удалить старый торрент у себя из клиента (старые серии удалять не надо),
    (3) скачать новый торрент и запустить его у себя в клиенте вместо старого, при этом указать клиенту путь в старую папку, куда и должно происходить скачивание новых серий.
    Ваш клиент при этом должен произвести хеширование (проверку) старой папки (если не производит сам - помогите ему сделать это), и будет докачивать только те серии, которых у вас ещё нет. Старые серии при этом не удаляются, а продолжают раздаваться!
    Eсли вы уже удалили старые серии, то предотвратить повторную закачку старых серий можно, отжав галочку в соответсвующих местах при запуске нового торрента. По возможности, желательно не удалять старые серии как можно дольше, чтобы релизёр не столько продолжал раздавать старые серии, а смог сконцентрироваться на новых.

    Размер скачиваемого торрента: 46.67 GB (50111961180 Bytes)

    Демоны да Винчи / Da Vincis Demons (2014) HDTV 1080i | AlexFilm торрент скачать бесплатно
    загрузка...
    Рейтинг →
     (голосов: 1, оценка 3/5, голосовать можно 1 раз )

    Другие торренты по теме:

  • Демоны Да Винчи / Da Vinci`s Demons (2013) HDTVRip | L1
  • OST - Демоны Да Винчи / Da Vincis Demons (2013) MP3
  • Демоны Да Винчи / Da Vincis Demons (2013) WEB-DL 1080p от MediaClub
  • Демоны да Винчи / Da Vincis Demons (2013) WEB-DLRip | LostFilm
  • Демоны Да Винчи / Da Vincis Demons (2013) BDRip 720p от MediaClub | Jaskier, AlexFilm
  • Демоны Да Винчи / Da Vinci`s Demons (2013) HDRip | AlexFilm скачать через торрент бесплатно
  • Демоны да Винчи / Da Vincis Demons (2013) HDTVRip 720p | LostFilm скачать через торрент бесплатно
  • Демоны да Винчи / Da Vincis Demons (2014) HDTVRip 720p | LostFilm скачать через торрент бесплатно


    • Комментарии (0):

      Информация

      Информация

        Посетители, находящиеся в группе Гости, не могут оставлять комментарии в данной новости.

        ↓ Меню



        ↓ Опрос

        А Вы добавили сайт в закладки?
        Да
        Не


        Top 10 за месяц (Фильмы)