.
Авторизация | Регистрация
Хочешь лучшие торренты? Добавь свой email!
Добавить
» » Рэмбо 3 / Rambo III (1988) BDRip-AVC | iPad | P скачать через торрент бесплатно




    Рэмбо 3 / Rambo III (1988) BDRip-AVC | iPad | P скачать через торрент бесплатно

    Опубликовал: Админ | Дата: 27-02-2015, 11:10 | Просмотров: 305



    Рэмбо 3 / Rambo III (1988) BDRip-AVC | iPad | P
    The first was for himself. The second for his country. This time it;s to save his friend

    Русское название: Рэмбо 3
    Русское название в мировом прокате: Rambo III
    Создали в: 1988
    Категория жанра: боевик, триллер, приключения
    Главный режиссер: Питер МакДональд
    Актеры: Сильвестр Сталлоне, Ричард Кренна, Кертвуд Смит, Спирос Фокас, Сэссон Габаи, Алон Абутбул, Марк Де Йонге, Дуди Шоуа, Рэнди Рэни, Mahmoud Assadollahi

    Сюжет фильма:
    Ветеран вьетнамской войны Джон Рэмбо, уставший от своих военных и гражданских подвигов, поселяется в буддистском монастыре. Однако долго пребывать в мире ему не приходится. Захвачен в плен его бывший командир, и Рэмбо отправляется его спасать, вступая в отчаянную и неравную схватку с противником, а заодно разоблачая коррумпированных американских военных.



    Снималось в: США
    Киностудия: Carolco Pictures Inc.

    Время просмотра: 01:41:44
    Перевод текста: Русский профессиональный многоголосый закадровый

    Файл
    Кодек для видео: H.264
    Качество фильма: BDRip 576p
    Информация о видео: 1024x436 (2.35:1) at 23.976 fps, AVC at 4000 kbps
    Информация о звуке:
    1: АAС 2.0 123 kbps - Русский профессиональный многоголосый закадровый
    Субтитры: отсутствуют

    MediaInfo

    General
    Complete name : C:CREATE264mod1outRambo.III.1988.576p.P.m4v
    Format : MPEG-4
    Codec ID : M4V
    File size : 3.01 GiB
    Duration : 1h 41mn
    Overall bit rate mode : Variable
    Overall bit rate : 4 234 Kbps
    Movie name : Рэмбо 3
    Performer : Peter MacDonald
    Genre : Action Adventure
    ContentType : Short Film
    Deion : Ветеран вьетнамской войны Джон Рэмбо, уставший от своих военных и гражданских подвигов, поселяется в буддистском монастыре. Однако долго пребывать в мире ему не приходится.
    Recorded date : UTC 1988-05-25 07:00:00
    Encoded date : UTC 2014-06-07 19:16:08
    Tagged date : UTC 2014-06-07 19:48:24
    Copyright : Carolco Pictures Inc.
    Service name : AOL
    Cover : Yes
    Comment : The first was for himself. The second for his country. This time it;s to save his friend.
    ContentRating : mpaa|R|400|

    Title/Sort : Rambo 3
    LongDeion : Ветеран вьетнамской войны Джон Рэмбо, уставший от своих военных и гражданских подвигов, поселяется в буддистском монастыре. Однако долго пребывать в мире ему не приходится. Захвачен в плен его бывший командир, и Рэмбо отправляется его спасать, вступая в отчаянную и неравную схватку с противником, а заодно разоблачая коррумпированных американских военных.
    AppleStoreAccountType : AOL
    AppleStoreCountry : Unknown Country
    AppleStoreCatalogID : 220130372
    Vendor : Apple:vendor_id:1988-8168

    Video
    ID : 1
    Format : AVC
    Format/Info : Advanced Video Codec
    Format profile : High@L4.1
    Format settings, CABAC : Yes
    Format settings, ReFrames : 10 frames
    Codec ID : avc1
    Codec ID/Info : Advanced Video Coding
    Duration : 1h 41mn
    Bit rate : 4 093 Kbps
    Maximum bit rate : 11.3 Mbps
    Width : 1 024 pixels
    Height : 436 pixels
    Display aspect ratio : 2.35:1
    Frame rate mode : Constant
    Frame rate : 23.976 fps
    Color space : YUV
    Chroma subsampling : 4:2:0
    Bit depth : 8 bits
    Scan type : Progressive
    Bits/(Pixel*Frame) : 0.382
    Stream size : 2.91 GiB (97%)
    Language : English
    Encoded date : UTC 2014-06-07 19:16:08
    Tagged date : UTC 2014-06-07 19:16:21

    Audio
    ID : 2
    Format : AAC
    Format/Info : Advanced Audio Codec
    Format profile : LC
    Codec ID : 40
    Duration : 1h 41mn
    Bit rate mode : Variable
    Bit rate : 132 Kbps
    Maximum bit rate : 198 Kbps
    Channel(s) : 2 channels
    Channel positions : Front: L R
    Sampling rate : 48.0 KHz
    Compression mode : Lossy
    Stream size : 97.0 MiB (3%)
    Title : MVO
    Language : Russian
    Encoded date : UTC 2014-06-07 19:14:21
    Tagged date : UTC 2014-06-07 19:16:21

    x264

    x264 info: frame I:1124 Avg QP:14.87 size:124048
    x264 info: frame P:37704 Avg QP:18.98 size: 44720
    x264 info: frame B:107532 Avg QP:21.63 size: 12067
    x264 info: consecutive B-frames: 3.5% 4.9% 16.3% 25.3% 18.8% 26.9% 2.8% 0.6% 0.4% 0.4% 0.0% 0.0% 0.0% 0.0% 0.0%
    x264 info: mb I I16..4: 27.5% 41.1% 31.4%
    x264 info: mb P I16..4: 0.8% 19.2% 4.0% P16..4: 21.9% 31.0% 15.3% 5.4% 1.1% skip: 1.3%
    x264 info: mb B I16..4: 0.0% 3.1% 0.6% B16..8: 34.4% 20.3% 5.3% direct: 7.7% skip:28.6% L0:37.8% L1:45.7% BI:16.5%
    x264 info: 8x8 transform intra:77.4% inter:51.3%
    x264 info: coded y,uvDC,uvAC intra: 95.1% 74.8% 45.5% inter: 38.7% 21.2% 7.6%
    x264 info: i16 v,h,dc,p: 3% 7% 31% 58%
    x264 info: i8 v,h,dc,ddl,ddr,vr,hd,vl,hu: 9% 7% 9% 10% 14% 13% 14% 11% 13%
    x264 info: i4 v,h,dc,ddl,ddr,vr,hd,vl,hu: 33% 7% 5% 7% 11% 10% 10% 8% 10%
    x264 info: i8c dc,h,v,p: 34% 28% 20% 18%
    x264 info: Weighted P-Frames: Y:9.0% UV:5.4%
    x264 info: ref P L0: 57.1% 14.8% 11.6% 5.0% 3.4% 2.6% 2.0% 1.2% 1.0% 1.0% 0.2% 0.0%
    x264 info: ref B L0: 91.5% 4.0% 1.9% 0.9% 0.6% 0.5% 0.4% 0.2% 0.1%
    x264 info: ref B L1: 96.7% 3.3%
    x264 info: kb/s:4092.93
    iTunes tags


    Sort Name: Rambo 3
    XID: Apple:vendor_id:1988-8168
    Content ID: 220130372
    Copyright: Carolco Pictures Inc.
    ScreenWriters: Сильвестр Сталлоне, Шелдон Леттич, Дэвид Морелл
    Producers: Базз Фейтшанс, Марио Кассар, Тони Мунафо
    Director: Питер МакДональд
    Cast: Сильвестр Сталлоне, Ричард Кренна, Марк Де Йонге, Кертвуд Смит, Спирос Фокас, Сэссон Габаи, Doudi Shoua, Рэнди Рэни, Алон Абутбул, Mahmoud Assadollahi
    Rating: R
    Long Deion: Ветеран вьетнамской войны Джон Рэмбо, уставший от своих военных и гражданских подвигов, поселяется в буддистском монастыре. Однако долго пребывать в мире ему не приходится. Захвачен в плен его бывший командир, и Рэмбо отправляется его спасать, вступая в отчаянную и неравную схватку с противником, а заодно разоблачая коррумпированных американских военных.
    Deion: Ветеран вьетнамской войны Джон Рэмбо, уставший от своих военных и гражданских подвигов, поселяется в буддистском монастыре. Однако долго пребывать в мире ему не приходится.
    Release Date: 1988-05-25T07:00:00Z
    Genre: Action Adventure
    Artist: Peter MacDonald
    Name: Рэмбо 3
    Comments: The first was for himself. The second for his country. This time it;s to save his friend.






    Залил: gekka
    Размер скачиваемого торрента: 3.01 GB (3230937738 Bytes)

    Рэмбо 3 / Rambo III (1988) BDRip-AVC | iPad | P скачать через торрент бесплатно
    загрузка...
    Рейтинг →
     (голосов: 1, оценка 5/5, голосовать можно 1 раз )

    Другие торренты по теме:

  • Рэмбо 3 / Rambo III (1988) HDRip от Youtracker | P | КПК
  • Рэмбо 3 / Rambo III (1988) BDRip 1080p от BT-Club скачать через торрент бесплатно
  • Рэмбо 3 / Rambo III (1988) DVD9+DVD5 | P


    • Комментарии (0):

      Информация

      Информация

        Посетители, находящиеся в группе Гости, не могут оставлять комментарии в данной новости.

        ↓ Меню



        ↓ Опрос

        А Вы добавили сайт в закладки?
        Да
        Не


        Top 10 за месяц (Фильмы)