.
Авторизация | Регистрация
Хочешь лучшие торренты? Добавь свой email!
Добавить
» » Смерть среди айсбергов / Orca, The Killer Whale (1977) BDRip by msltel | D, P2, A скачать через торрент бесплатно




    Смерть среди айсбергов / Orca, The Killer Whale (1977) BDRip by msltel | D, P2, A скачать через торрент бесплатно

    Опубликовал: Админ | Дата: 27-02-2015, 11:10 | Просмотров: 346



    Русское название: Смерть среди айсбергов
    Русское название в мировом прокате: Orca: The Killer Whale
    Создали в: 1977
    Категория жанра: Ужасы, триллер, драма, приключения
    Снималось в: США, Dino de Laurentiis Cinematografica, Famous Films N.V.
    Главный режиссер: Майкл Андерсон
    Актеры: Ричард Харрис, Шарлотта Рэмплинг, Уилл Сэмпсон, Бо Дерек, Кинен Уинн, Роберт Кэрредин, Скотт Уолкер, Питер Хутен, Уэйн Хэффли

    Сюжет фильма: Капитан Нолан никогда не задумывался о том, какой непоправимый вред он наносит живой природе. Он просто отлично выполнял свою работу. Он делал то, что у него получалось лучше всего, — он убивал. Выходил в море и убивал китов. Однажды он вытащил из воды самку-китиху. Она погибла. А вместе с ней погиб и её не успевший родиться детёныш. Трагедия произошла на глазах кита-самца. А орки однолюбы по своей природе, также как и лебеди, также как и многие живые существа…С этой минуты кит начал мстить людям. Людям, близких Нолану. Но к капитану Нолану у кита был свой особый счёт. Когда от рыбацкого посёлка мало что осталось, обоим — и Нолану, и киту, — стало ясно: они должны сойтись в поединке, который для кого-то из них окажется последним…

    Качество фильма: BDRip
    Размер скачиваемого торрента: 1.53 ГБ
    Время просмотра: 01:32:17

    Информация о видео: XviD, 1580 Кбит/с, 720x304
    Информация о звуке 1: русский, 48 kHz, AC3, 2 ch, 192 kbps avg, Дублированный
    Информация о звуке 2: русский, 48 kHz, AC3, 2 ch, 192 kbps avg, Профессиональный двухголосый, студия Инис
    Информация о звуке 3: русский, 48 kHz, AC3, 2 ch, 192 kbps avg, Авторский, Василий Горчаков

    Внешние файлы
    Информация о звуке: английский, 48 kHz, AC3, 2 ch, 192 kbps avg, Оригинал
    Субтитры: русские

    Исходник: ChuckNorriss (HDtracker)

    Сравнение с исходником



    MediaInfo
    Общее
    Полное имя : D:VideoSmert; sredi ajsbergov.1977.BDRipSmert; sredi ajsbergov.1977.BDRip.avi
    Формат : AVI
    Формат/Информация : Audio Video Interleave
    Размер файла : 1,40 Гбайт
    Продолжительность : 1 ч. 32 м.
    Общий поток : 2175 Кбит/сек
    Программа кодирования : VirtualDubMod 1.5.10.2 (build 2540/release)
    Библиотека кодирования : VirtualDubMod build 2540/release

    Видео
    Идентификатор : 0
    Формат : MPEG-4 Visual
    Профиль формата : Advanced Simple@L5
    Параметр BVOP формата : 1
    Параметр QPel формата : Нет
    Параметр GMC формата : Без точки перехода
    Параметр матрицы формата : Default (H.263)
    Режим смешивания : Сжатый битовый поток
    Идентификатор кодека : XVID
    Идентификатор кодека/Подсказка : XviD
    Продолжительность : 1 ч. 32 м.
    Битрейт : 1580 Кбит/сек
    Ширина : 720 пикселей
    Высота : 304 пикселя
    Соотношение сторон : 2,35:1
    Частота кадров : 23,976 кадра/сек
    Цветовое пространство : YUV
    Субдискретизация насыщенности : 4:2:0
    Битовая глубина : 8 бит
    Тип развёртки : Прогрессивная
    Метод сжатия : С потерями
    Бит/(Пиксели*Кадры) : 0.301
    Размер потока : 1,02 Гбайт (73%)
    Библиотека кодирования : XviD 1.2.1 (UTC 2008-12-04)

    Аудио #1
    Идентификатор : 1
    Формат : AC-3
    Формат/Информация : Audio Coding 3
    Расширение режима : CM (complete main)
    Параметр Endianness формата : Big
    Идентификатор кодека : 2000
    Продолжительность : 1 ч. 32 м.
    Вид битрейта : Постоянный
    Битрейт : 192 Кбит/сек
    Каналы : 2 канала
    Расположение каналов : Front: L R
    Частота : 48,0 КГц
    Битовая глубина : 16 бит
    Метод сжатия : С потерями
    Размер потока : 127 Мбайт (9%)
    Выравнивание : Разделение по промежуткам
    Продолжительность промежутка : 42 мс. (1,00 видеокадр)
    Время предзагрузки промежутка : 500 мс.

    Аудио #2
    Идентификатор : 2
    Формат : AC-3
    Формат/Информация : Audio Coding 3
    Расширение режима : CM (complete main)
    Параметр Endianness формата : Big
    Идентификатор кодека : 2000
    Продолжительность : 1 ч. 32 м.
    Вид битрейта : Постоянный
    Битрейт : 192 Кбит/сек
    Каналы : 2 канала
    Расположение каналов : Front: L R
    Частота : 48,0 КГц
    Битовая глубина : 16 бит
    Метод сжатия : С потерями
    Размер потока : 127 Мбайт (9%)
    Выравнивание : Разделение по промежуткам
    Продолжительность промежутка : 42 мс. (1,00 видеокадр)
    Время предзагрузки промежутка : 500 мс.

    Аудио #3
    Идентификатор : 3
    Формат : AC-3
    Формат/Информация : Audio Coding 3
    Расширение режима : CM (complete main)
    Параметр Endianness формата : Big
    Идентификатор кодека : 2000
    Продолжительность : 1 ч. 32 м.
    Вид битрейта : Постоянный
    Битрейт : 192 Кбит/сек
    Каналы : 2 канала
    Расположение каналов : Front: L R
    Частота : 48,0 КГц
    Битовая глубина : 16 бит
    Метод сжатия : С потерями
    Размер потока : 127 Мбайт (9%)
    Выравнивание : Разделение по промежуткам
    Продолжительность промежутка : 42 мс. (1,00 видеокадр)
    Время предзагрузки промежутка : 500 мс.

    Общее
    Полное имя : D:VideoSmert; sredi ajsbergov.1977.BDRipSmert; sredi ajsbergov.1977.Original.eng.ac3
    Формат : AC-3
    Формат/Информация : Audio Coding 3
    Размер файла : 127 Мбайт
    Продолжительность : 1 ч. 32 м.
    Режим общего битрейта : Постоянный
    Общий поток : 192 Кбит/сек

    Аудио
    Формат : AC-3
    Формат/Информация : Audio Coding 3
    Расширение режима : CM (complete main)
    Параметр Endianness формата : Big
    Продолжительность : 1 ч. 32 м.
    Вид битрейта : Постоянный
    Битрейт : 192 Кбит/сек
    Каналы : 2 канала
    Расположение каналов : Front: L R
    Частота : 48,0 КГц
    Битовая глубина : 16 бит
    Метод сжатия : С потерями
    Размер потока : 127 Мбайт (100%)

    Общее
    Полное имя : D:VideoSmert; sredi ajsbergov.1977.BDRipSmert; sredi ajsbergov.1977.rus.srt
    Размер файла : 76,0 Кбайт
    Скриншоты для ознакомления


    Залил: msltel
    Размер скачиваемого торрента: 1.53 GB (1638605606 Bytes)

    Смерть среди айсбергов / Orca, The Killer Whale (1977) BDRip by msltel | D, P2, A скачать через торрент бесплатно
    загрузка...
    Рейтинг →
     (голосов: 1, оценка 3/5, голосовать можно 1 раз )

    Другие торренты по теме:

  • Смерть среди айсбергов / Орка - кит убийца / Orca, the Killer Whale (1977) DVDRip-AVC
  • Смерть среди айсбергов / Orca: The Killer Whale (1977) HDRip от Vikosol | D, P2, A скачать через торрент бесплатно
  • Смерть среди айсбергов / Orca: The Killer Whale (1977) BDRip 720p от Vikosol | D, P2, A скачать через торрент бесплатно
  • Смерть среди айсбергов / Кит - Убийца / Orca: The Killer Whale (1977) BDRip 1080p от CMEGRoup
  • Смерть среди айсбергов / Orca, the Killer Whale (1977) HDRip от Scarabey | D


    • Комментарии (0):

      Информация

      Информация

        Посетители, находящиеся в группе Гости, не могут оставлять комментарии в данной новости.

        ↓ Меню



        ↓ Опрос

        А Вы добавили сайт в закладки?
        Да
        Не


        Top 10 за месяц (Фильмы)