.
Авторизация | Регистрация
Хочешь лучшие торренты? Добавь свой email!
Добавить
» » Пятница, 13-е. Часть 4: Последняя глава / Friday the 13th: The Final Chapter (1984) BDRip 720p by msltel | P, A, L1 скачать через торрент бесплатно




    Пятница, 13-е. Часть 4: Последняя глава / Friday the 13th: The Final Chapter (1984) BDRip 720p by msltel | P, A, L1 скачать через торрент бесплатно

    Опубликовал: Админ | Дата: 27-02-2015, 11:10 | Просмотров: 217



    Русское название: Пятница, 13-е. Часть 4: Последняя глава
    Русское название в мировом прокате: Friday the 13th: The Final Chapter
    Создали в: 1984
    Категория жанра: Ужасы, триллер
    Снималось в: США, Georgetown Productions Inc., Paramount Pictures, Reel Efx Inc., Paramount
    Главный режиссер: Джозеф Зито
    Актеры: Кимберли Бек, Питер Бартон, Кори Фельдман, Эрик Андерсон, Криспин Гловер, Алан Хэйес, Барбара Ховард, Лоуренс Моносон, Джоан Фриман, Джуди Аронсон, Брюс Малер

    Сюжет фильма: Отсчёт убийств продолжается в следующей, леденящей душу, истории о похождениях Джейсона Вурхиза — зловещего мстителя из ада, который в этой картине вынесет смертный приговор новой компании несчастных людишек. Кровожадный Джейсон, жуткий призрак Хрустального Озера, возвращается из морга, куда его отправили в предыдущей картине, чтобы устроить настоящую резню!

    Качество фильма: BDRip 720p
    Размер скачиваемого торрента: 6.84 ГБ
    Время просмотра: 01:31:24

    Информация о видео: MPEG-4 AVC, 6370 Кбит/с, 1280x720
    Информация о звуке 1: русский, 48 kHz, AC3, 2 ch, 192 kbps avg, Профессиональный многоголосый, студия Позитив
    Информация о звуке 2: русский, 48 kHz, AC3, 2 ch, 192 kbps avg, Авторский, Александр Готлиб
    Информация о звуке 3: русский, 48 kHz, AC3, 2 ch, 192 kbps avg, Авторский, Вартан Дохалов
    Информация о звуке 4: русский, 48 kHz, AC3, 6 ch, 448 kbps avg, Авторский, Юрий Живов
    Информация о звуке 5: русский, 48 kHz, AC3, 2 ch, 192 kbps avg, Авторский, Сергей Кузнецов

    Внешние файлы
    Информация о звуке: украинский, 48 kHz, AC3, 2 ch, 192 kbps avg, Профессиональный многоголосый, студия Интер
    Информация о звуке: русский, 48 kHz, DTS, 6 ch, 1509 kbps avg, Авторский, Юрий Живов
    Информация о звуке: русский, 48 kHz, AC3, 2 ch, 192 kbps avg, Авторский, Юрий Живов (ранний)
    Информация о звуке: русский, 48 kHz, AC3, 2 ch, 192 kbps avg, Любительский одноголосый
    Информация о звуке: английский, 48 kHz, AC3, 6 ch, 448 kbps avg, Оригинал
    Информация о звуке: английский, 48 kHz, AC3, 2 ch, 224 kbps avg, комментарий 1
    Информация о звуке: английский, 48 kHz, AC3, 2 ch, 224 kbps avg, комментарий 2
    Субтитры: английские (для слабослышащих)

    Исходник: zavin (HDtracker)

    Сравнение с исходником



    MediaInfo + Лог х264
    Общее
    Полное имя : D:VideoPjatnica 13, chast 4.Poslednjaja glava.1984.BDRip.720pPjatnica 13, chast 4.Poslednjaja glava.1984.AVO.rus.Ю.Живов (ранний).ac3
    Формат : AC-3
    Формат/Информация : Audio Coding 3
    Размер файла : 126 Мбайт
    Продолжительность : 1 ч. 31 м.
    Режим общего битрейта : Постоянный
    Общий поток : 192 Кбит/сек

    Аудио
    Формат : AC-3
    Формат/Информация : Audio Coding 3
    Расширение режима : CM (complete main)
    Параметр Endianness формата : Big
    Продолжительность : 1 ч. 31 м.
    Вид битрейта : Постоянный
    Битрейт : 192 Кбит/сек
    Каналы : 2 канала
    Расположение каналов : Front: L R
    Частота : 48,0 КГц
    Битовая глубина : 16 бит
    Метод сжатия : С потерями
    Размер потока : 126 Мбайт (100%)

    Общее
    Полное имя : D:VideoPjatnica 13, chast 4.Poslednjaja glava.1984.BDRip.720pPjatnica 13, chast 4.Poslednjaja glava.1984.AVO.rus.Ю.Живов.dts
    Формат : DTS
    Формат/Информация : Digital Theater Systems
    Размер файла : 987 Мбайт
    Продолжительность : 1 ч. 31 м.
    Режим общего битрейта : Постоянный
    Общий поток : 1509 Кбит/сек

    Аудио
    Формат : DTS
    Формат/Информация : Digital Theater Systems
    Режим : 16
    Параметр Endianness формата : Big
    Продолжительность : 1 ч. 31 м.
    Вид битрейта : Постоянный
    Битрейт : 1509 Кбит/сек
    Каналы : 6 каналов
    Расположение каналов : Front: L C R, Side: L R, LFE
    Частота : 48,0 КГц
    Битовая глубина : 24 бит
    Метод сжатия : С потерями
    Размер потока : 987 Мбайт (100%)

    Общее
    Уникальный идентификатор : 215754487519686321530932520292016218466 (0xA250CD8548CEB231845C921409206162)
    Полное имя : D:VideoPjatnica 13, chast 4.Poslednjaja glava.1984.BDRip.720pPjatnica 13, chast 4.Poslednjaja glava.1984.BDRip.720p.mkv
    Формат : Matroska
    Версия формата : Version 4 / Version 2
    Размер файла : 4,94 Гбайт
    Продолжительность : 1 ч. 31 м.
    Общий поток : 7740 Кбит/сек
    Дата кодирования : UTC 2014-06-08 10:46:36
    Программа кодирования : mkvmerge v6.9.1 (;Blue Panther;) 64bit built on Apr 18 2014 18:23:38
    Библиотека кодирования : libebml v1.3.0 + libmatroska v1.4.1

    Видео
    Идентификатор : 1
    Формат : AVC
    Формат/Информация : Advanced Video Codec
    Профиль формата : High@L4.1
    Параметр CABAC формата : Да
    Параметр ReFrames формата : 9 кадров
    Идентификатор кодека : V_MPEG4/ISO/AVC
    Продолжительность : 1 ч. 31 м.
    Битрейт : 6370 Кбит/сек
    Ширина : 1280 пикселей
    Высота : 720 пикселей
    Соотношение сторон : 16:9
    Режим частоты кадров : Постоянный
    Частота кадров : 23,976 кадра/сек
    Цветовое пространство : YUV
    Субдискретизация насыщенности : 4:2:0
    Битовая глубина : 8 бит
    Тип развёртки : Прогрессивная
    Бит/(Пиксели*Кадры) : 0.288
    Размер потока : 4,07 Гбайт (82%)
    Заголовок : BDRip -- STarankov
    Библиотека кодирования : x264 core 138 r2358 9e941d1
    Залил: msltel
    Размер скачиваемого торрента: 6.84 GB (7349755618 Bytes)


    Пятница, 13-е. Часть 4: Последняя глава / Friday the 13th: The Final Chapter (1984) BDRip 720p by msltel | P, A, L1 скачать через торрент бесплатно
    загрузка...
    Рейтинг →
     (голосов: 1, оценка 4/5, голосовать можно 1 раз )

    Другие торренты по теме:

  • OST - Пятница, 13-е / Friday the 13th (2009) MP3
  • Пятница 13-е / Friday the 13th (2009) HDRip-AVC | Расширенная Убийственная Версия
  • Пятница 13-е / Friday the 13th (2009) Blu-Ray 1080p
  • Пятница 13-е / Friday the 13th (2009) BDRip-AVC от HELLYWOOD | D скачать через торрент бесплатно
  • Пятница 13-е / Friday The 13th: The Series (1987) DVDRip Brazzass скачать через торрент бесплатно
  • Пятница 13-е / Friday The 13th: The Series (1987 - 1990) DVDRip от Brazzass
  • Пятница 13-е / Friday the 13th (1980) HDRip-AVC от New-Team скачать через торрент бесплатно
  • Пятница, 13-е. Часть 4: Последняя глава / Friday the 13th: The Final Chapter (1984) BDRip 1080p by msltel | P, A, L1 скачать через торрент бесплатно


    • Комментарии (0):

      Информация

      Информация

        Посетители, находящиеся в группе Гости, не могут оставлять комментарии в данной новости.

        ↓ Меню



        ↓ Опрос

        А Вы добавили сайт в закладки?
        Да
        Не


        Top 10 за месяц (Фильмы)