.
Авторизация | Регистрация
» » Сладкая жизнь (2014) HDTVRip скачать через торрент бесплатно




    Сладкая жизнь (2014) HDTVRip скачать через торрент бесплатно

    Опубликовал: Админ | Дата: 27-02-2015, 11:10 | Просмотров: 401




    Русское название в мировом прокате: Сладкая жизнь
    Создали в: 2014
    Категория жанра: Комедия
    Главный режиссер: Андрей Джунковский
    Актеры: Марта Носова, Никита Панфилов, Анастасия Меськова, Антон Денисенко, Мария Шумакова, Роман Маякин, Лукерья Ильяшенко, Анастасия Клюева, Николь Спиридонова, Павел Слепухов

    Сюжет: В центре истории Сладкой жизни шестеро успешных тридцатилетних москвичей, чья жизнь меняется с появлением главной героини Саши — матери-одиночки из Перми, зарабатывающей на жизнь в ночном клубе танцами go-go. После неприятного инцидента на дне рождения местного мажора Саша отправляет ребенка к бабушке, а сама едет в гости к московской подруге Лере. Когда-то они вместе танцевали в кордебалете Большого театра. Шесть часовых серий Сладкой жизни укладываются всего в 8 дней. Но за это время жизнь каждого из героев сериала повернется на 180 градусов. И каждый из участников событий успеет показать себя с самой неожиданной стороны: в диапазоне от абсолютного свинства до настоящего благородства.

    Снималось в: Россия, Good Story Media по заказу ТНТ
    Время просмотра: 6 x ~ 00:44:00
    Язык: Русский

    Качество фильма: HDTVRip
    Информация о видео: XviD, ~ 1700 Кбит/с, 720x400
    Информация о звуке rus: AC3, 6 ch, 384 Кбит/с

    Инфо
    Полное имя : E:Sladkaya.zhizn.S01.tahiySladkaya.zhizn.S01E01.tahiy.avi
    Формат : AVI
    Формат/Информация : Audio Video Interleave
    Размер файла : 681 Мбайт
    Продолжительность : 46 м.
    Общий поток : 2037 Кбит/сек
    Название фильма : Sladkaya.zhizn.tahiy
    Программа кодирования : VirtualDubMod 1.5.10.3 | www.virtualdub-fr.org || (build 2550/release)

    Видео
    Идентификатор : 0
    Формат : MPEG-4 Visual
    Профиль формата : Advanced Simple@L5
    Параметр BVOP формата : 1
    Параметр QPel формата : Нет
    Параметр GMC формата : Без точки перехода
    Параметр матрицы формата : Default (MPEG)
    Идентификатор кодека : XVID
    Идентификатор кодека/Подсказка : XviD
    Продолжительность : 46 м.
    Битрейт : 1643 Кбит/сек
    Ширина : 720 пикселей
    Высота : 400 пикселей
    Соотношение сторон : 16:9
    Частота кадров : 25,000 кадров/сек
    Цветовое пространство : YUV
    Субдискретизация насыщенности : 4:2:0
    Битовая глубина : 8 бит
    Тип развёртки : Прогрессивная
    Метод сжатия : С потерями
    Бит/(Пиксели*Кадры) : 0.228
    Размер потока : 549 Мбайт (81%)
    Библиотека кодирования : XviD 1.2.1 (UTC 2008-12-04)

    Аудио
    Идентификатор : 1
    Формат : AC-3
    Формат/Информация : Audio Coding 3
    Расширение режима : CM (complete main)
    Параметр Endianness формата : Big
    Идентификатор кодека : 2000
    Продолжительность : 46 м.
    Вид битрейта : Постоянный
    Битрейт : 384 Кбит/сек
    Каналы : 6 каналов
    Расположение каналов : Front: L C R, Side: L R, LFE
    Частота : 48,0 КГц
    Битовая глубина : 16 бит
    Метод сжатия : С потерями
    Размер потока : 128 Мбайт (19%)
    Выравнивание : Разделение по промежуткам
    Продолжительность промежутка : 40 мс. (1,00 видеокадр)
    Время предзагрузки промежутка : 500 мс.




    Размер скачиваемого торрента: 3.76 GB (4032653312 Bytes)

    Сладкая жизнь (2014) HDTVRip скачать через торрент бесплатно
    загрузка...
    Рейтинг →
     (голосов: 1, оценка 5/5, голосовать можно 1 раз )

    Другие торренты по теме:

  • Маша и Медведь: Сладкая жизнь (2013) SATRip торрент скачать бесплатно
  • Маша и Медведь: Сладкая жизнь (2013) HDTVRip торрент скачать бесплатно
  • Маша и Медведь: Сладкая жизнь (2013) HDTV 1080i торрент скачать бесплатно
  • Маша и Медведь: Сладкая жизнь (2013) HDTVRip 720р от ExKinoRay торрент скачать бесплатно
  • Маша и Медведь: Сладкая жизнь (2013) HDTVRip-AVC от ExKinoRay торрент скачать бесплатно
  • Горечь и сладость / Горько-сладкая жизнь / A Bittersweet Life / Dalkomhan insaeng (2005) BDRip 1080р | А, P торрент скачать бесплатно
  • Горечь и сладость / Горько-сладкая жизнь / A Bittersweet Life / Dalkomhan insaeng (2005) BDRip 720p от HQ-ViDEO торрент скачать бесплатно
  • Маша и Медведь: Сладкая жизнь (2013) HDRip от ExKinoRay торрент скачать бесплатно


    • Комментарии (0):

      Информация

      Информация

        Посетители, находящиеся в группе Гости, не могут оставлять комментарии в данной новости.

        ↓ Меню



        ↓ Опрос

        А Вы добавили сайт в закладки?
        Да
        Не


        Top 10 за неделю (Фильмы)