.
Авторизация | Регистрация
» » Подмена / Кара небесная / Switch (1991) DVD-9 торрент скачать бесплатно




    Подмена / Кара небесная / Switch (1991) DVD-9 торрент скачать бесплатно

    Опубликовал: Админ | Дата: 27-02-2015, 11:10 | Просмотров: 359







    Детально о кино
    Русское название: Подмена / Кара небесная
    Русское название в мировом прокате: Switch
    Создали в: 1991
    Категория жанра: Комедия
    Главный режиссер: Блэйк Эдвардс
    Актеры: Эллен Баркин, Джимми Смитс, ДжоБет Уильямс, Лоррейн Бракко, Тони Робертс, Перри Кинг, Брюс Пэйн, Лизетт Энтони, Виктория Махони, Бэзил Хоффман

    Сюжет фильма: Стив Брукс, сердцеед и соблазнитель женщин, отправляясь на очередную вечеринку, не знал, что погибнет от рук своих любимиц и на следующий день превратится в эффектную блондинку. Теперь, чтобы не попасть в Ад, он должен понравиться хотя бы одному человеку… точнее, хотя бы одному мужчине.



    Снималось в: США
    Киностудия: Beco Films, Cinema Plus, Home Box Office (HBO)
    Время просмотра: 01:43:02
    Перевод текста: Дублированный, профессиональный многоголосый, профессиональный двухголосый, авторский
    Субтитры: Английские, французские, испанские

    Файл
    Кодек для видео: MPEG-2
    Качество фильма: DVD-9
    Информация о видео: NTSC 16:9 (720x480) VBR
    Информация о звуке: Русский, английский (Dolby AC3, 2 ch)

    Меню
    Перевод

    1. Авторский (Михалев)
    2. Английский
    3. Дублированный
    4. Профессиональный многоголосый (Нота)
    5. Профессиональный многоголосый (ОРТ)
    6. Профессиональный двухголосый (НТВ+)
    7. Авторский (Горчаков)
    DVDInfo
    Title: Локальный диск
    Size: 4.90 Gb ( 5 141 416 KBytes ) - DVD-9
    Enabled regions: 1, 2, 3, 4, 5, 6, 7, 8

    VTS_01 :
    Play Length: 01:43:02
    Video: NTSC 16:9 (720x480) VBR, Auto PanScan
    Audio:
    Russian (Dolby AC3, 2 ch)
    English (Dolby AC3, 2 ch)
    Russian (Dolby AC3, 2 ch)
    Russian (Dolby AC3, 2 ch)
    Russian (Dolby AC3, 2 ch)
    Russian (Dolby AC3, 2 ch)
    Russian (Dolby AC3, 2 ch)
    Subtitles:
    English
    Francais
    Espanol

    VTS_02 :
    Play Length: 00:02:00
    Video: NTSC 4:3 (720x480) VBR
    Audio:
    English (Dolby AC3, 2 ch)

    VTS_03 :
    Play Length: 00:00:09
    Video: NTSC 16:9 (720x480) VBR, Auto PanScan
    Audio:
    English (Dolby AC3, 2 ch)

    Menu Video:
    NTSC 4:3 (720x480) VBR
    Auto PanScan, Auto Letterboxed
    Menu English Language Unit :
    Root Menu
    Subpicture Menu
    Audio Menu
    Chapter (PTT) Menu


    MediaInfo
    Общее
    Полное имя : D:1АААПОДМЕНАVIDEO_TSVTS_01_1.VOB
    Формат : MPEG-PS
    Размер файла : 1024 Мбайт
    Продолжительность : 21 м.
    Режим общего битрейта : Переменный
    Общий поток : 6694 Кбит/сек

    Видео
    Идентификатор : 224 (0xE0)
    Формат : MPEG Video
    Версия формата : Version 2
    Профиль формата : Main@Main
    Параметр BVOP формата : Да
    Параметр матрицы формата : Выборочная
    Параметр GOP формата : Variable
    Продолжительность : 21 м.
    Вид битрейта : Переменный
    Битрейт : 5217 Кбит/сек
    Максимальный битрейт : 9800 Кбит/сек
    Ширина : 720 пикселей
    Высота : 480 пикселей
    Соотношение сторон : 16:9
    Частота кадров : 23,976 кадра/сек
    Стандарт вещания : Component
    Цветовое пространство : YUV
    Субдискретизация насыщенности : 4:2:0
    Битовая глубина : 8 бит
    Тип развёртки : Прогрессивная
    Порядок развёртки : 2:3 Pulldown
    Метод сжатия : С потерями
    Бит/(Пиксели*Кадры) : 0.630
    TimeCode_FirstFrame : 00:59:58;00
    TimeCode_Source : Group of pictures t_head
    Размер потока : 798 Мбайт (78%)
    Основные цвета : BT.601 NTSC
    Характеристики трансфера : BT.601
    Коэффициенты матрицы : BT.601

    Аудио #1
    Идентификатор : 189 (0xBD)-128 (0x80)
    Формат : AC-3
    Формат/Информация : Audio Coding 3
    Профиль формата : Dolby Digital
    Расширение режима : CM (complete main)
    Параметр Endianness формата : Big
    Режим смешивания : DVD-Video
    Продолжительность : 21 м.
    Вид битрейта : Постоянный
    Битрейт : 192 Кбит/сек
    Каналы : 2 канала
    Расположение каналов : Front: L R
    Частота : 48,0 КГц
    Битовая глубина : 16 бит
    Метод сжатия : С потерями
    Размер потока : 29,4 Мбайт (3%)

    Аудио #2
    Идентификатор : 189 (0xBD)-129 (0x81)
    Формат : AC-3
    Формат/Информация : Audio Coding 3
    Профиль формата : Dolby Digital
    Расширение режима : CM (complete main)
    Параметр Endianness формата : Big
    Режим смешивания : DVD-Video
    Продолжительность : 21 м.
    Вид битрейта : Постоянный
    Битрейт : 192 Кбит/сек
    Каналы : 2 канала
    Расположение каналов : Front: L R
    Частота : 48,0 КГц
    Битовая глубина : 16 бит
    Метод сжатия : С потерями
    Размер потока : 29,4 Мбайт (3%)

    Аудио #3
    Идентификатор : 189 (0xBD)-130 (0x82)
    Формат : AC-3
    Формат/Информация : Audio Coding 3
    Расширение режима : CM (complete main)
    Параметр Endianness формата : Big
    Режим смешивания : DVD-Video
    Продолжительность : 21 м.
    Вид битрейта : Постоянный
    Битрейт : 192 Кбит/сек
    Каналы : 2 канала
    Расположение каналов : Front: L R
    Частота : 48,0 КГц
    Битовая глубина : 16 бит
    Метод сжатия : С потерями
    Размер потока : 29,4 Мбайт (3%)

    Аудио #4
    Идентификатор : 189 (0xBD)-131 (0x83)
    Формат : AC-3
    Формат/Информация : Audio Coding 3
    Расширение режима : CM (complete main)
    Параметр Endianness формата : Big
    Режим смешивания : DVD-Video
    Продолжительность : 21 м.
    Вид битрейта : Постоянный
    Битрейт : 192 Кбит/сек
    Каналы : 2 канала
    Расположение каналов : Front: L R
    Частота : 48,0 КГц
    Битовая глубина : 16 бит
    Метод сжатия : С потерями
    Размер потока : 29,4 Мбайт (3%)

    Аудио #5
    Идентификатор : 189 (0xBD)-132 (0x84)
    Формат : AC-3
    Формат/Информация : Audio Coding 3
    Расширение режима : CM (complete main)
    Параметр Endianness формата : Big
    Режим смешивания : DVD-Video
    Продолжительность : 21 м.
    Вид битрейта : Постоянный
    Битрейт : 192 Кбит/сек
    Каналы : 2 канала
    Расположение каналов : Front: L R
    Частота : 48,0 КГц
    Битовая глубина : 16 бит
    Метод сжатия : С потерями
    Размер потока : 29,4 Мбайт (3%)

    Аудио #6
    Идентификатор : 189 (0xBD)-133 (0x85)
    Формат : AC-3
    Формат/Информация : Audio Coding 3
    Расширение режима : CM (complete main)
    Параметр Endianness формата : Big
    Режим смешивания : DVD-Video
    Продолжительность : 21 м.
    Вид битрейта : Постоянный
    Битрейт : 192 Кбит/сек
    Каналы : 2 канала
    Расположение каналов : Front: L R
    Частота : 48,0 КГц
    Битовая глубина : 16 бит
    Метод сжатия : С потерями
    Размер потока : 29,4 Мбайт (3%)

    Аудио #7
    Идентификатор : 189 (0xBD)-134 (0x86)
    Формат : AC-3
    Формат/Информация : Audio Coding 3
    Расширение режима : CM (complete main)
    Параметр Endianness формата : Big
    Режим смешивания : DVD-Video
    Продолжительность : 21 м.
    Вид битрейта : Постоянный
    Битрейт : 192 Кбит/сек
    Каналы : 2 канала
    Расположение каналов : Front: L R
    Частота : 48,0 КГц
    Битовая глубина : 16 бит
    Метод сжатия : С потерями
    Размер потока : 29,4 Мбайт (3%)

    Текст #1
    Идентификатор : 224 (0xE0)-CC3
    Формат : EIA-608
    Режим смешивания, доп. информация : Muxed in Video #1
    Вид битрейта : Постоянный
    Размер потока : 0,00 байт (0%)

    Текст #2
    Идентификатор : 189 (0xBD)-32 (0x20)
    Формат : RLE
    Формат/Информация : Run-length encoding
    Режим смешивания : DVD-Video

    Текст #3
    Идентификатор : 189 (0xBD)-33 (0x21)
    Формат : RLE
    Формат/Информация : Run-length encoding
    Режим смешивания : DVD-Video

    Текст #4
    Идентификатор : 189 (0xBD)-34 (0x22)
    Формат : RLE
    Формат/Информация : Run-length encoding
    Режим смешивания : DVD-Video

    Меню


    Скриншоты для ознакомления

    Залил: YArl
    Размер скачиваемого торрента: 4.90 GB (5264809984 Bytes)

    Подмена / Кара небесная / Switch (1991) DVD-9 торрент скачать бесплатно
    загрузка...
    Рейтинг →
     (голосов: 1, оценка 3/5, голосовать можно 1 раз )

    Другие торренты по теме:



      Комментарии (0):

      Информация

      Информация

        Посетители, находящиеся в группе Гости, не могут оставлять комментарии в данной новости.

        ↓ Меню



        ↓ Опрос

        А Вы добавили сайт в закладки?
        Да
        Не


        Top 10 за неделю (Фильмы)