.
Авторизация | Регистрация
Хочешь лучшие торренты? Добавь свой email!
Добавить
» » Рекрут / The Recruit (2003) BDRip 720p by msltel | D, P, A скачать через торрент бесплатно




    Рекрут / The Recruit (2003) BDRip 720p by msltel | D, P, A скачать через торрент бесплатно

    Опубликовал: Админ | Дата: 27-02-2015, 11:10 | Просмотров: 165



    Русское название: Рекрут
    Русское название в мировом прокате: The Recruit
    Создали в: 2003
    Категория жанра: Боевик, триллер, драма, криминал
    Снималось в: США, Touchstone Pictures, Spyglass Entertainment, Epsilon Motion Pictures
    Главный режиссер: Роджер Дональдсон
    Актеры: Аль Пачино, Колин Фаррелл, Бриджет Мойнэхэн, Гэбриел Махт, Кеннет Митчелл, Майк Рилба, Рон Лиа, Карл Прюнер, Джини Колледжа, Дженни Ливайн

    Сюжет фильма: Джеймс Клэйтон учится на последнем курсе Массачусетского технологического института и показывает отличные навыки в компьютерном программировании. Он является матёрым хакером, что привлекает внимание спецслужб. Однажды к Джеймсу обращается человек из ЦРУ Уолтер Бёрк, который предлагает парню поступить на службу в управление, а в виде главной мотивации для вербовки он использует таинственное исчезновение отца Джеймса, которое произошло в начале 90-х годов. Заинтригованный Клэйтон соглашается, а позже проходит все необходимые проверки и попадает в тренировочный лагерь для рекрутов. Тренером ребят становится Уолтер Бёрк. Пройдя один тест за другим, Клэйтон демонстрирует прекрасные навыки шпиона, но проваливает последнюю проверку. Так он становится агентом без прикрытия, которому предстоит найти крота, который частями похищает опасный вирус из Лэнгли.

    Качество фильма: BDRip 720p
    bРазмер:/b 9.7 ГБ
    Время просмотра: 01:55:00

    Информация о видео: MPEG-4 AVC, 3499 Кбит/с, 1280x546
    Информация о звуке 1: русский, 48 kHz, AC3, 2 ch, 192 kbps avg, Дублированный
    Информация о звуке 2: русский, 48 kHz, AC3, 6 ch, 448 kbps avg, Профессиональный многоголосый, FDV
    Информация о звуке 3: русский, 48 kHz, AC3, 6 ch, 448 kbps avg, Профессиональный многоголосый, Видеосервис
    Информация о звуке 4: русский, 48 kHz, AC3, 6 ch, 448 kbps avg, Авторский, Леонид Володарский
    Информация о звуке 5: русский, 48 kHz, AC3, 6 ch, 448 kbps avg, Авторский, Юрий Живов
    Субтитры: русские (форсированные, надписи)

    Внешние файлы
    Информация о звуке: русский, 48 kHz, DTS, 6 ch, 1509 kbps avg, Профессиональный многоголосый, FDV
    Информация о звуке: русский, 48 kHz, DTS, 6 ch, 1509 kbps avg, Профессиональный многоголосый, Видеосервис
    Информация о звуке: русский, 48 kHz, DTS, 6 ch, 1509 kbps avg, Авторский, Леонид Володарский
    Информация о звуке: русский, 48 kHz, DTS, 6 ch, 1509 kbps avg, Авторский, Юрий Живов
    Информация о звуке: английский, 48 kHz, AC3, 6 ch, 448 kbps avg, Оригинал
    Субтитры: русские
    Субтитры: английские

    Исходник: KpucTo161 (HDtracker)

    Сравнение с исходником



    MediaInfo + Лог х264
    Общее
    Полное имя : D:VideoRekrut.2003.BDRip.720pRekrut.2003.AVO.rus.Л.Володарский.dts
    Формат : DTS
    Формат/Информация : Digital Theater Systems
    Размер файла : 1,21 Гбайт
    Продолжительность : 1 ч. 54 м.
    Режим общего битрейта : Постоянный
    Общий поток : 1509 Кбит/сек

    Аудио
    Формат : DTS
    Формат/Информация : Digital Theater Systems
    Режим : 16
    Параметр Endianness формата : Big
    Продолжительность : 1 ч. 54 м.
    Вид битрейта : Постоянный
    Битрейт : 1509 Кбит/сек
    Каналы : 6 каналов
    Расположение каналов : Front: L C R, Side: L R, LFE
    Частота : 48,0 КГц
    Битовая глубина : 16 бит
    Метод сжатия : С потерями
    Размер потока : 1,21 Гбайт (100%)

    Общее
    Полное имя : D:VideoRekrut.2003.BDRip.720pRekrut.2003.AVO.rus.Ю.Живов.dts
    Формат : DTS
    Формат/Информация : Digital Theater Systems
    Размер файла : 1,21 Гбайт
    Продолжительность : 1 ч. 54 м.
    Режим общего битрейта : Постоянный
    Общий поток : 1509 Кбит/сек

    Аудио
    Формат : DTS
    Формат/Информация : Digital Theater Systems
    Режим : 16
    Параметр Endianness формата : Big
    Продолжительность : 1 ч. 54 м.
    Вид битрейта : Постоянный
    Битрейт : 1509 Кбит/сек
    Каналы : 6 каналов
    Расположение каналов : Front: L C R, Side: L R, LFE
    Частота : 48,0 КГц
    Битовая глубина : 16 бит
    Метод сжатия : С потерями
    Размер потока : 1,21 Гбайт (100%)

    Общее
    Уникальный идентификатор : 236260524744163860839816441125495085694 (0xB1BE1F36AEC936E9885E6114FE639A7E)
    Полное имя : D:VideoRekrut.2003.BDRip.720pRekrut.2003.BDRip.720p.mkv
    Формат : Matroska
    Версия формата : Version 4 / Version 2
    Размер файла : 4,49 Гбайт
    Продолжительность : 1 ч. 55 м.
    Общий поток : 5595 Кбит/сек
    Дата кодирования : UTC 2014-06-10 13:10:57
    Программа кодирования : mkvmerge v6.9.1 (;Blue Panther;) 64bit built on Apr 18 2014 18:23:38
    Библиотека кодирования : libebml v1.3.0 + libmatroska v1.4.1

    Видео
    Идентификатор : 1
    Формат : AVC
    Формат/Информация : Advanced Video Codec
    Профиль формата : High@L4.1
    Параметр CABAC формата : Да
    Параметр ReFrames формата : 9 кадров
    Идентификатор кодека : V_MPEG4/ISO/AVC
    Продолжительность : 1 ч. 55 м.
    Битрейт : 3499 Кбит/сек
    Ширина : 1280 пикселей
    Высота : 546 пикселей
    Соотношение сторон : 2,35:1
    Режим частоты кадров : Постоянный
    Частота кадров : 23,976 кадра/сек
    Цветовое пространство : YUV
    Субдискретизация насыщенности : 4:2:0
    Битовая глубина : 8 бит
    Тип развёртки : Прогрессивная
    Бит/(Пиксели*Кадры) : 0.209
    Размер потока : 2,81 Гбайт (63%)
    Заголовок : BDRip -- STarankov
    Библиотека кодирования : x264 core 138 r2358 9e941d1
    Залил: msltel
    Размер скачиваемого торрента: 9.70 GB (10417403976 Bytes)


    Рекрут / The Recruit (2003) BDRip 720p by msltel | D, P, A скачать через торрент бесплатно
    загрузка...
    Рейтинг →
     (голосов: 1, оценка 3/5, голосовать можно 1 раз )

    Другие торренты по теме:

  • Рекрут / The Recruit (2003) HDRip от Scarabey | Р скачать через торрент бесплатно
  • Рекрут / The Recruit (2003) BDRip-AVC от HELLYWOOD
  • Рекрут / The Recruit (2003) Blu-Ray Remux 1080p от HDClub
  • Рекрут / The Recruit (2003) BDRip 1080p от denis 100 | D, P2, A | GER Transfer скачать через торрент бесплатно
  • Рекрут / The Recruit (2003) BDRip от HQCLUB | Ger-Transfer | ReRip скачать через торрент бесплатно
  • Рекрут / The Recruit (2003) HDRip | КПК от Assassins Creed скачать через торрент бесплатно
  • Рекрут / The Recruit (2003) BDRip-AVC от 0ptimus | D, P, A | GER Transfer скачать через торрент бесплатно
  • Рекрут / The Recruit (2003) HDRip от Scarabey | D


    • Комментарии (0):

      Информация

      Информация

        Посетители, находящиеся в группе Гости, не могут оставлять комментарии в данной новости.

        ↓ Меню



        ↓ Опрос

        А Вы добавили сайт в закладки?
        Да
        Не


        Top 10 за месяц (Фильмы)