.
Авторизация | Регистрация
» » Детектор лжи / Deceiver (1997) DVDRip от New-Team | P скачать через торрент бесплатно




    Детектор лжи / Deceiver (1997) DVDRip от New-Team | P скачать через торрент бесплатно

    Опубликовал: Админ | Дата: 27-02-2015, 11:10 | Просмотров: 472


    Снималось в: США
    Создали в: MDP Worldwide

    Категория жанра: триллер, драма, криминал, детектив
    Создали в: 1997
    Время просмотра: 01:41:56

    Перевод текста: Профессиональный (многоголосый, закадровый)
    Оригинальная аудиодорожка: английский
    Субтитры подготовлены: нет

    Главный режиссер: Джонас Пэйт /Jonas Pate, Джош Пэйт /Josh Pate

    Актеры:
    Тим Рот /Tim Roth/, Крис Пенн /Chris Penn/, Майкл Рукер /Michael Rooker/, Рени Зеллвегер /Renee Zellweger/, Эллен Берстин /Ellen Burstyn/, Розанна Аркетт /Rosanna Arquette/...

    Сюжет:
    Совершено ужасное преступление — жестоко убита молодая девушка. Основной подозреваемый — капризный отпрыск богатых родителей Джемс Уолтер Уэйланд. Но убийца ли он? Это покажут напряженные допросы, которые превратятся в захватывающую игру трех профессионалов, выведывающих друг у друга самые мрачные тайны. Удастся ли выяснить, кто перед нами — убийца, алкоголик и психопат или невинный человек, ставший жертвой обстоятельств? И кто допрашивает его — честные блюстители закона или хладнокровные мерзавцы? Их разделяет тонкая грань и между ними лишь беспристрастный детектор лжи…



    Исходник: DVD5 R5
    Тип релиза: DVDRip
    Контейнер: AVI

    Информация о видео: 688x288 (2,40:1), 25 fps, XviD ~ 1471 kbps avg, 0.297 bit/pixel
    Информация о звуке: 48 kHz, Dolby Digital AC3 5,1, 384 kbps MVO
    Информация о звуке: 48 kHz, Dolby Digital AC3 2,0, 192 kbps Английский

    Раздача от:
    MediaInfo

    Общее
    Полное имя : Detektor.lzhi.1997.DVDRip_New-team_by_AVP_Studio.avi
    Формат : AVI
    Формат/Информация : Audio Video Interleave
    Размер файла : 1,46 Гбайт
    Продолжительность : 1 ч. 41 м.
    Общий поток : 2062 Кбит/сек
    Программа кодирования : VirtualDubModRus 1.5.10.2 (build 2542/release)
    Библиотека кодирования : VirtualDubMod build 2542/release

    Видео
    Идентификатор : 0
    Формат : MPEG-4 Visual
    Профиль формата : Advanced Simple@L5
    Параметр BVOP формата : 1
    Параметр QPel формата : Нет
    Параметр GMC формата : Без точки перехода
    Параметр матрицы формата : Выборочная
    Идентификатор кодека : XVID
    Идентификатор кодека/Подсказка : XviD
    Продолжительность : 1 ч. 41 м.
    Битрейт : 1471 Кбит/сек
    Ширина : 688 пикселей
    Высота : 288 пикселей
    Соотношение сторон : 2,40:1
    Частота кадров : 25,000 кадров/сек
    Цветовое пространство : YUV
    Субдискретизация насыщенности : 4:2:0
    Битовая глубина : 8 бит
    Тип развёртки : Прогрессивная
    Метод сжатия : С потерями
    Бит/(Пиксели*Кадры) : 0.297
    Размер потока : 1,04 Гбайт (71%)
    Библиотека кодирования : XviD 73

    Аудио #1
    Идентификатор : 1
    Формат : AC-3
    Формат/Информация : Audio Coding 3
    Расширение режима : CM (complete main)
    Параметр Endianness формата : Big
    Идентификатор кодека : 2000
    Продолжительность : 1 ч. 41 м.
    Вид битрейта : Постоянный
    Битрейт : 384 Кбит/сек
    Каналы : 6 каналов
    Расположение каналов : Front: L C R, Side: L R, LFE
    Частота : 48,0 КГц
    Битовая глубина : 16 бит
    Метод сжатия : С потерями
    Размер потока : 279 Мбайт (19%)
    Выравнивание : Разделение по промежуткам
    Продолжительность промежутка : 40 мс. (1,00 видеокадр)
    Время предзагрузки промежутка : 500 мс.

    Аудио #2
    Идентификатор : 2
    Формат : AC-3
    Формат/Информация : Audio Coding 3
    Профиль формата : Dolby Digital
    Расширение режима : CM (complete main)
    Параметр Endianness формата : Big
    Идентификатор кодека : 2000
    Продолжительность : 1 ч. 41 м.
    Вид битрейта : Постоянный
    Битрейт : 192 Кбит/сек
    Каналы : 2 канала
    Расположение каналов : Front: L R
    Частота : 48,0 КГц
    Битовая глубина : 16 бит
    Метод сжатия : С потерями
    Размер потока : 140 Мбайт (9%)
    Выравнивание : Разделение по промежуткам
    Продолжительность промежутка : 40 мс. (1,00 видеокадр)
    Время предзагрузки промежутка : 500 мс

    Скриншоты для ознакомления



    Залил: AVPStudio
    Размер скачиваемого торрента: 1.46 GB (1570881536 Bytes)

    Детектор лжи / Deceiver (1997) DVDRip от New-Team | P скачать через торрент бесплатно
    загрузка...
    Рейтинг →
     (голосов: 1, оценка 5/5, голосовать можно 1 раз )

    Другие торренты по теме:

  • Детектор лжи (2012) SATRip торрент скачать бесплатно
  • Детектор лжи / Deceiver (1997) DVDRip-AVC от New-Team | P скачать через торрент бесплатно
  • Детектор лжи / Deceiver (1997) DVDRip от New-Team | P торрент скачать бесплатно
  • Детектор лжи / Deceiver / 1997 / ПМ / DVDRip скачать торрент бесплатно
  • Детектор лжи. Украина (8 сезон: 14 выпуск) / Детектор брехні / 2015 / РУ / DVB скачать торрент бесплатно


    • Комментарии (0):

      Информация

      Информация

        Посетители, находящиеся в группе Гости, не могут оставлять комментарии в данной новости.

        ↓ Меню



        ↓ Опрос

        А Вы добавили сайт в закладки?
        Да
        Не


        Top 10 за неделю (Фильмы)