.
Авторизация | Регистрация
Хочешь лучшие торренты? Добавь свой email!
Добавить
» » Без гроша в Беверли Хиллз / Down and Out in Beverly Hills (1986) WEB-DLRip от Leon-masl торрент скачать бесплатно




    Без гроша в Беверли Хиллз / Down and Out in Beverly Hills (1986) WEB-DLRip от Leon-masl торрент скачать бесплатно

    Опубликовал: Админ | Дата: 27-02-2015, 11:10 | Просмотров: 353



    Детально о кино
    Русское название: Без гроша в Беверли Хиллз
    Русское название в мировом прокате: Down and Out in Beverly Hills
    Создали в: 1986
    Категория жанра: комедия
    Главный режиссер: Пол Мазурски
    Актеры: Ник Нолти, Бетт Мидлер, Ричард Дрейфусс, Литтл Ричард, Трейси Нельсон, Элизабет Пенья, Эван Ричардс, Майк Дог, Доналд Ф. Мюик, Пол Мазурски

    Сюжет фильма:
    Иногда богатые тоже смеются. Жизнь миллионера Дэйва Уайтмэна похожа на сумасшедший дом: его жена занята только йогой и аэробикой, сын вступил в критический возраст, а дочь страдает от систематического переедания.

    Но ироничной судьбе этого показалось мало: однажды Дэйв выловил в своем роскошном бассейне несчастного бродягу и взял его к себе в дом. Однако у этого нищего вдруг обнаружилась такая богатая фантазия и жажда деятельности, что через некоторое время семью Уайтмэнов стало просто не узнать!




    Снималось в: США
    Время просмотра: 01:42:20
    Перевод текста: Профессиональный (многоголосый закадровый), |iTunes Russia|

    Файл
    Кодек для видео: XviD
    Качество фильма: WEB-DLRip
    Информация о видео: 704x384, 23,976 fps, 1823 kbps
    Информация о звуке: AC-3, 2 ch, 192 kbps, 48.00 Khz
    MI
    Общее
    Полное имя : Down.and.Out.in.Beverly.Hills.1986.WEB-DLRip.avi
    Формат : AVI
    Формат/Информация : Audio Video Interleave
    Размер файла : 1,46 Гбайт
    Продолжительность : 1 ч. 43 м.
    Общий поток : 2024 Кбит/сек
    Программа кодирования : VirtualDubMod 1.5.10.3 | www.virtualdub-fr.org || (build 2550/release)
    Библиотека кодирования : VirtualDubMod build 2550/release

    Видео
    Идентификатор : 0
    Формат : MPEG-4 Visual
    Профиль формата : Advanced Simple@L5
    Параметр BVOP формата : 1
    Параметр QPel формата : Нет
    Параметр GMC формата : Без точки перехода
    Параметр матрицы формата : Выборочная
    Идентификатор кодека : XVID
    Идентификатор кодека/Подсказка : XviD
    Продолжительность : 1 ч. 43 м.
    Битрейт : 1823 Кбит/сек
    Ширина : 704 пикс.
    Высота : 384 пикс.
    Соотношение сторон : 16:9
    Частота кадров : 23,976 кадр/сек
    Цветовое пространство : YUV
    Подвыборка цветности : 4:2:0
    Битовая глубина : 8 бит
    Тип развёртки : Прогрессивная
    Метод сжатия : С потерями
    Бит/(Пиксели*Кадры) : 0.281
    Размер потока : 1,32 Гбайт (90%)
    Библиотека кодирования : XviD 73

    Аудио
    Идентификатор : 1
    Формат : AC-3
    Формат/Информация : Audio Coding 3
    Расширение режима : CM (complete main)
    Идентификатор кодека : 2000
    Продолжительность : 1 ч. 43 м.
    Вид битрейта : Постоянный
    Битрейт : 192 Кбит/сек
    Канал(ы) : 2 канала(ов)
    Расположение каналов : Front: L R
    Частота : 48,0 КГц
    Битовая глубина : 16 бит
    Метод сжатия : С потерями
    Размер потока : 142 Мбайт (9%)
    Выравнивание : Разделение по промежуткам
    Продолжительность промежутка : 42 мс. (1,00 видеокадр)
    Время предзагрузки промежутка : 500 ms
    Скриншоты для ознакомления


    Релиз подготовил: Leon-masl
    Залил: leon-masl
    Размер скачиваемого торрента: 1.46 GB (1568880640 Bytes)

    Без гроша в Беверли Хиллз / Down and Out in Beverly Hills (1986) WEB-DLRip от Leon-masl торрент скачать бесплатно
    загрузка...
    Рейтинг →
     (голосов: 1, оценка 3/5, голосовать можно 1 раз )

    Другие торренты по теме:

  • Школа Кёнсон: Пропавшие без вести / Gyeongseonghakyoo: sarajin sonyeodeul / The Silenced (2015) BDRip 1080p | L2
  • Без одежды / Без шва / Без единой нитки / Uden en traevl / Die Jungfrau von 18 Karat (1968) DVDRip by AndreSweet | L1 скачать через торрент бесплатно
  • Живущие без мечты / Без снов и иллюзий / Las mantenidas sin suenos (2005) DVDRip
  • Без ограничений / Без границ / No Limit (2014-2015) HDTV 1080i
  • Каникулы в Мексике - 2 Ток-шоу. В Новый Год без старых тайн (2012) SATRip
  • Без истерики! / Hysteria (2011) BDRip-AVC | iPad
  • Без компромиссов / Raw Deal (1986) BDRip 720p
  • Бой без правил / Fighting (2009) BDRip от Rulya74 | D


    • Комментарии (0):

      Информация

      Информация

        Посетители, находящиеся в группе Гости, не могут оставлять комментарии в данной новости.

        ↓ Меню



        ↓ Опрос

        А Вы добавили сайт в закладки?
        Да
        Не


        Top 10 за месяц (Фильмы)