.
Авторизация | Регистрация
Хочешь лучшие торренты? Добавь свой email!
Добавить
» » Короли Лондона / Lords of London (2013) BDRemux 1080i от NovaLan торрент скачать бесплатно




    Короли Лондона / Lords of London (2013) BDRemux 1080i от NovaLan торрент скачать бесплатно

    Опубликовал: Админ | Дата: 27-02-2015, 11:10 | Просмотров: 175



    Русское название: Короли Лондона
    Русское название в мировом прокате: Lords of London
    Создали в: 2013
    Категория жанра: Триллер, детектив, криминал
    Главный режиссер: Антонио Симончини
    Актеры: Глен Мерфи, Рэй Уинстон, Джованни Капальбо, Серена Иансити, Кристофер Хатрэлл, Кассиус Теренс Мерфи, Глин Гримстед, Хелен Лэтэм, Джо Иган, Марк Адамс, Антония Дейвис, Рэй Буллок мл., Лаура Хэмм, Роберта Лена, Анна Далтон, Керри Хаттон, Аллан Бентон
    Сюжет фильма:
    Тони - сын известного гангстера, который с малых лет привык промышлять тем же, что и его отец. Однажды он просыпается в заброшенном сельском домике, его одежда в крови и сам он понятия не имеет, как туда попал и, что случилось до этого. Кажется, эта деревушка затерялась во времени, поблизости нет ни одного телефона. Тони встречается лишь один человек по имени Франческо. Тот рассказывает ему свою историю и просит помочь его семье. Что-то в его истории находит отклик в сердце Тони. Перед ним впервые встает выбор, помочь незнакомому человеку или решать собственные проблемы.


    Снималось в: Великобритания, Finger of Suspicion Films, Lost in Italy Films, Omerta Films
    Время просмотра: 01:32:09
    Перевод текста: Профессиональный двухголосый

    Кодек для видео: H.264
    Качество фильма: Blu-Ray Remux 1080i
    Информация о видео: MPEG-4 AVC, 19677 Кбит/с, 1920x1080, 25.000 кадр/с
    Информация о звуке: Русский (AC3, 2 ch, 192 Кбит/с), английский (DTS-HD MA, 6 ch, 2058 Кбит/с)

    Инфо-файл

    Полное имя : E:Раздачи_ELords.of.London.2013.BDRemux.1080i.NovaLan.mkv
    Формат : Matroska
    Версия формата : Version 4 / Version 2
    Размер файла : 14,1 Гбайт
    Продолжительность : 1 ч. 32 м.
    Режим общего битрейта : Переменный
    Общий поток : 21,9 Мбит/сек
    Название фильма : Lords of London 2013 - NovaLan
    Дата кодирования : UTC 2014-06-11 17:09:18
    Программа кодирования : mkvmerge v6.9.1 (;Blue Panther;) 64bit built on Apr 18 2014 18:23:38
    Библиотека кодирования : libebml v1.3.0 + libmatroska v1.4.1

    Видео
    Идентификатор : 1
    Формат : AVC
    Формат/Информация : Advanced Video Codec
    Профиль формата : High@L4.1
    Параметр CABAC формата : Да
    Параметр ReFrames формата : 4 кадра
    Параметр GOP формата : M=3, N=24
    Идентификатор кодека : V_MPEG4/ISO/AVC
    Продолжительность : 1 ч. 32 м.
    Вид битрейта : Переменный
    Битрейт : 19,7 Мбит/сек
    Максимальный битрейт : 35,0 Мбит/сек
    Ширина : 1920 пикселей
    Высота : 1080 пикселей
    Соотношение сторон : 16:9
    Частота кадров : 25,000 кадров/сек
    Стандарт вещания : PAL
    Цветовое пространство : YUV
    Субдискретизация насыщенности : 4:2:0
    Битовая глубина : 8 бит
    Тип развёртки : MBAFF
    Бит/(Пиксели*Кадры) : 0.380
    Размер потока : 12,7 Гбайт (90%)
    Заголовок : Lords of London 2013 - NovaLan
    Default : Да
    Forced : Нет
    Основные цвета : BT.709-5, BT.1361, IEC 61966-2-4, SMPTE RP177
    Характеристики трансфера : BT.709-5, BT.1361
    Коэффициенты матрицы : BT.709-5, BT.1361, IEC 61966-2-4 709, SMPTE RP177

    Аудио #1
    Идентификатор : 2
    Формат : AC-3
    Формат/Информация : Audio Coding 3
    Расширение режима : CM (complete main)
    Параметр Endianness формата : Big
    Идентификатор кодека : A_AC3
    Продолжительность : 1 ч. 32 м.
    Вид битрейта : Постоянный
    Битрейт : 192 Кбит/сек
    Каналы : 2 канала
    Расположение каналов : Front: L R
    Частота : 48,0 КГц
    Битовая глубина : 16 бит
    Метод сжатия : С потерями
    Размер потока : 127 Мбайт (1%)
    Язык : Russian
    Default : Да
    Forced : Нет

    Аудио #2
    Идентификатор : 3
    Формат : DTS
    Формат/Информация : Digital Theater Systems
    Профиль формата : MA / Core
    Идентификатор кодека : A_DTS
    Продолжительность : 1 ч. 32 м.
    Вид битрейта : Переменный
    Битрейт : 1579 Кбит/сек / 1510 Кбит/сек
    Каналы : 6 каналов
    Расположение каналов : Front: L C R, Side: L R, LFE
    Частота : 48,0 КГц
    Битовая глубина : 16 бит
    Метод сжатия : Без потерь / Lossy
    Язык : English
    Default : Нет
    Forced : Нет

    Меню
    00:00:00.000 : en:Chapter 1
    00:15:09.639 : en:Chapter 2
    00:32:39.880 : en:Chapter 3
    00:45:10.119 : en:Chapter 4
    00:59:54.599 : en:Chapter 5
    01:14:33.720 : en:Chapter 6
    01:24:06.122 : en:Chapter 7
    01:29:14.854 : en:Chapter 8


    Релиз группа NovaLan
    Автор сборки Sergei7721






    Релиз подготовил:
    Залил: Sergei7721
    Размер скачиваемого торрента: 14.12 GB (15158903891 Bytes)

    Короли Лондона / Lords of London (2013) BDRemux 1080i от NovaLan торрент скачать бесплатно
    загрузка...
    Рейтинг →
     (голосов: 1, оценка 4/5, голосовать можно 1 раз )

    Другие торренты по теме:

  • Короли Лондона / Lost in Italy (2013) SATRip от ClubTorrent | P скачать через торрент бесплатно
  • Короли Лондона / Lost in Italy (2013) DVB от ClubTorrent скачать через торрент бесплатно
  • Короли Лондона / Lords of London / Lost in Italy (2013) WEB-DL 1080p от CINEMANIA | НТВ
  • Короли Лондона / Lords of London / Lost in Italy (2014) BDRip 1080p от CINEMANIA | НТВ+
  • Короли Лондона / Lords of London / Lost in Italy (2014) BDRip 720p от CINEMANIA | НТВ+
  • Короли Лондона / Lords of London (2013) Blu-ray 1080i от NovaLan


    • Комментарии (0):

      Информация

      Информация

        Посетители, находящиеся в группе Гости, не могут оставлять комментарии в данной новости.

        ↓ Меню



        ↓ Опрос

        А Вы добавили сайт в закладки?
        Да
        Не


        Top 10 за месяц (Фильмы)