.
Авторизация | Регистрация
» » Нимфоманка: Часть 2 / название: Nymphomaniac: Vol. II (2013) BDRip-AVC | iPad | A | D Чистый звук торрент скачать бесплатно




    Нимфоманка: Часть 2 / название: Nymphomaniac: Vol. II (2013) BDRip-AVC | iPad | A | D Чистый звук торрент скачать бесплатно

    Опубликовал: Админ | Дата: 27-02-2015, 11:10 | Просмотров: 189



    Нимфоманка: Часть 2 / название: Nymphomaniac: Vol. II (2013) BDRip-AVC | iPad | A | D Чистый звук
    Забудь о любви

    Русское название: Нимфоманка: Часть 2
    Русское название в мировом прокате: название: Nymphomaniac: Vol. II
    Создали в: 2013
    Категория жанра: драма
    Главный режиссер: Ларс фон Триер
    Актеры: Шарлотта Генсбур, Стэйси Мартин, Стеллан Скарсгард, Шайа ЛаБаф, Кристиан Слэйтер, Ума Турман, Софи Кеннеди Кларк, Йенс Альбинус, Конни Нильсен, Фелисити Гилберт

    Сюжет фильма:
    Это светлая и поэтичная история эротических переживаний женщины от рождения до пятидесятилетия, рассказанная от лица главной героини, женщины по имени Джо, поставившей себе диагноз - нимфомания. Холодным зимним утром Селигман, немолодой одинокий холостяк, натыкается в переулке на Джо, избитую и находящуюся в полубессознательном состоянии. Доставив женщину домой, он рассматривает ее раны и задается вопросом, как дошла она до такой жизни. Джо рассказывает Селигману историю своей насыщенной молодости, изобилующую параллельными сюжетами и неожиданными отступлениями.



    Снималось в: Дания, Германия, Франция, Бельгия
    Киностудия: Zentropa Entertainments, Zentropa International K?ln, Heimatfilm

    Время просмотра: 02:03:30
    Перевод текста: Русский дублированный, авторский

    Файл
    Кодек для видео: H.264
    Качество фильма: BDRip 576p
    Информация о видео: 1024x436 (2.35:1) at 23.976 fps, AVC at 3500 kbps
    Информация о звуке:
    1: АAС 2.0 132 kbps - Русский дублированный (СПД)
    2: АAС 2.0 132 kbps - Русский авторский (Ю. Сербин)
    Субтитры: отсутствуют

    MediaInfo

    General
    Complete name : I:modoutNymphomaniac.Vol.II.2013.576p.DA.m4v
    Format : MPEG-4
    Codec ID : M4V
    File size : 3.33 GiB
    Duration : 2h 3mn
    Overall bit rate mode : Variable
    Overall bit rate : 3 864 Kbps
    Movie name : Нимфоманка: Часть 2
    Performer : Lars von Trier
    Genre : Drama
    ContentType : Short Film
    Deion : Продолжение истории нимфоманки по имени Джо, чья жизнь была полна множества эротических переживаний, впечатлений и опытов. Она рассказывает о себе немолодому одинокому холостяку Селигману, который наткнулся на нее, избитую
    Recorded date : 2013-12-252013-12-25T08:00:00Z
    Encoded date : UTC 2014-06-11 16:18:24
    Tagged date : UTC 2014-06-11 16:30:54
    Copyright : Zentropa Entertainments, Zentropa International K?ln, Heimatfilm
    Cover : Yes
    Comment : Забудь о любви
    ContentRating : mpaa|Unrated|600|

    Title/Sort : Nymphomaniac: Vol. II
    LongDeion : Продолжение истории нимфоманки по имени Джо, чья жизнь была полна множества эротических переживаний, впечатлений и опытов. Она рассказывает о себе немолодому одинокому холостяку Селигману, который наткнулся на нее, избитую и находящуюся в полубессознательном состоянии, в переулке, доставил к себе домой и выходил…
    AppleStoreCatalogID : 825504044
    Vendor : Apple:vendor_id:2013-813476

    Video
    ID : 1
    Format : AVC
    Format/Info : Advanced Video Codec
    Format profile : High@L4.1
    Format settings, CABAC : Yes
    Format settings, ReFrames : 10 frames
    Codec ID : avc1
    Codec ID/Info : Advanced Video Coding
    Duration : 2h 3mn
    Bit rate : 3 589 Kbps
    Maximum bit rate : 24.4 Mbps
    Width : 1 024 pixels
    Height : 436 pixels
    Display aspect ratio : 2.35:1
    Frame rate mode : Constant
    Frame rate : 23.976 fps
    Color space : YUV
    Chroma subsampling : 4:2:0
    Bit depth : 8 bits
    Scan type : Progressive
    Bits/(Pixel*Frame) : 0.335
    Stream size : 3.10 GiB (93%)
    Title : Nymphomaniac.Vol.II.2013
    Language : English
    Encoded date : UTC 2014-06-11 16:18:24
    Tagged date : UTC 2014-06-11 16:19:09

    Audio #1
    ID : 2
    Format : AAC
    Format/Info : Advanced Audio Codec
    Format profile : LC
    Codec ID : 40
    Duration : 2h 3mn
    Bit rate mode : Variable
    Bit rate : 127 Kbps
    Maximum bit rate : 218 Kbps
    Channel(s) : 2 channels
    Channel positions : Front: L R
    Sampling rate : 48.0 KHz
    Compression mode : Lossy
    Stream size : 112 MiB (3%)
    Title : Dub
    Language : Russian
    Encoded date : UTC 2014-06-11 16:04:58
    Tagged date : UTC 2014-06-11 16:19:09

    Audio #2
    ID : 3
    Format : AAC
    Format/Info : Advanced Audio Codec
    Format profile : LC
    Codec ID : 40
    Duration : 2h 3mn
    Bit rate mode : Variable
    Bit rate : 132 Kbps
    Maximum bit rate : 232 Kbps
    Channel(s) : 2 channels
    Channel positions : Front: L R
    Sampling rate : 48.0 KHz
    Compression mode : Lossy
    Stream size : 118 MiB (3%)
    Title : AVO Y.Serbin
    Language : Russian
    Encoded date : UTC 2014-06-11 16:14:16
    Tagged date : UTC 2014-06-11 16:19:09

    Menu
    ID : 4
    Codec ID : text
    Duration : 2h 3mn
    Encoded date : UTC 2014-06-11 16:19:55
    Tagged date : UTC 2014-06-11 16:19:55
    Bit rate mode : CBR



    x264

    x264 info: frame I:1055 Avg QP:14.00 size: 66463
    x264 info: frame P:35701 Avg QP:16.58 size: 30716
    x264 info: frame B:140908 Avg QP:18.46 size: 15312
    x264 info: consecutive B-frames: 2.3% 2.5% 6.9% 10.9% 12.5% 40.6% 6.5% 4.9% 7.9% 2.2% 1.0% 1.3% 0.7%
    x264 info: mb I I16..4: 15.7% 58.9% 25.5%
    x264 info: mb P I16..4: 3.9% 12.6% 4.7% P16..4: 26.4% 32.9% 11.6% 3.6% 0.6% skip: 3.7%
    x264 info: mb B I16..4: 0.8% 2.1% 1.3% B16..8: 34.2% 21.8% 3.3% direct: 6.2% skip:30.4% L0:40.0% L1:42.2% BI:17.8%
    x264 info: 8x8 transform intra:55.9% inter:33.6%
    x264 info: coded y,uvDC,uvAC intra: 90.0% 77.4% 63.2% inter: 25.9% 14.5% 6.8%
    x264 info: i16 v,h,dc,p: 2% 3% 40% 55%
    x264 info: i8 v,h,dc,ddl,ddr,vr,hd,vl,hu: 12% 9% 16% 9% 11% 11% 10% 11% 12%
    x264 info: i4 v,h,dc,ddl,ddr,vr,hd,vl,hu: 37% 8% 9% 7% 9% 8% 8% 7% 8%
    x264 info: i8c dc,h,v,p: 44% 26% 15% 16%
    x264 info: Weighted P-Frames: Y:3.4% UV:1.5%
    x264 info: ref P L0: 58.2% 7.7% 14.2% 6.1% 4.2% 3.1% 2.5% 1.5% 1.3% 1.1% 0.1% 0.0%
    x264 info: ref B L0: 79.4% 8.6% 4.5% 2.3% 1.7% 1.3% 1.1% 0.7% 0.4%
    x264 info: ref B L1: 93.2% 6.8%
    x264 info: kb/s:3589.01
    iTunes tags


    Sort Name: Nymphomaniac: Vol. II
    XID: Apple:vendor_id:2013-813476
    Content ID: 825504044
    Copyright: Zentropa Entertainments, Zentropa International K?ln, Heimatfilm
    ScreenWriters: Ларс фон Триер
    Producers: Мария Сесилия Гаде, Луиза Вест, Беттина Брокемпер
    Director: Ларс фон Триер
    Cast: Шарлотта Генсбур, Стеллан Скарсгард, Шайа ЛаБаф, Джейми Белл, Стэйси Мартин, Уиллем Дефо, Миа Гот, Жан-Марк Барр, Майкл Пас, Конни Нильсен // Charlotte Gainsbourg (Joe), Shia LaBeouf (Jer?me), Willem Dafoe (L), Udo Kier, Stellan Skarsg?rd (Seligman), Jean-Marc Barr (Debtor Gentleman), Jamie Bell (K), Mia Goth (P), Michael Pas (Old Jer?me), Stacy Martin (Young Joe)
    Rating: Unrated
    Long Deion: Продолжение истории нимфоманки по имени Джо, чья жизнь была полна множества эротических переживаний, впечатлений и опытов. Она рассказывает о себе немолодому одинокому холостяку Селигману, который наткнулся на нее, избитую и находящуюся в полубессознательном состоянии, в переулке, доставил к себе домой и выходил…
    Deion: Продолжение истории нимфоманки по имени Джо, чья жизнь была полна множества эротических переживаний, впечатлений и опытов. Она рассказывает о себе немолодому одинокому холостяку Селигману, который наткнулся на нее, избитую
    Release Date: 2013-12-252013-12-25T08:00:00Z
    Genre: Drama
    Artist: Lars von Trier
    Name: Нимфоманка: Часть 2
    Comments: Забудь о любви




    full-size screenshots









    Залил: gekka
    Размер скачиваемого торрента: 3.33 GB (3578946972 Bytes)

    Нимфоманка: Часть 2 / название: Nymphomaniac: Vol. II (2013) BDRip-AVC | iPad | A | D Чистый звук торрент скачать бесплатно
    загрузка...
    Рейтинг →
     (голосов: 1, оценка 3/5, голосовать можно 1 раз )

    Другие торренты по теме:



      Комментарии (0):

      Информация

      Информация

        Посетители, находящиеся в группе Гости, не могут оставлять комментарии в данной новости.

        ↓ Меню



        ↓ Опрос

        А Вы добавили сайт в закладки?
        Да
        Не


        Top 10 за неделю (Фильмы)