.
Авторизация | Регистрация
Хочешь лучшие торренты? Добавь свой email!
Добавить
» » Почти человек / Almost Human (2013) BDRemux 1080p | L2, L1 торрент скачать бесплатно




    Почти человек / Almost Human (2013) BDRemux 1080p | L2, L1 торрент скачать бесплатно

    Опубликовал: Админ | Дата: 27-02-2015, 11:10 | Просмотров: 157



    Почти человек / Almost Human

    Создали в: 2013
    Снималось в: США
    Категория жанра: ужасы, фантастика
    Время просмотра: 01:19:28
    Тип перевода: Любительское (двухголосое) + Любительское (одноголосое)
    Киностудия: Channel 83 Films, Ambrosino / Delmenico
    Главный режиссёр: Джо Бегос

    Актеры: Грэхэм Скиппер, Джош Этье, Ванесса Ли, Сьюзэн Т. Треверс, Anthony Amaral III, Майкл А. ЛоЦицеро, Jeremy Furtado, Jami Tennille, Чак Доэрти, Kristopher Avedisian

    Сюжет фильма: Марк Фишер был похищен инопланетянами почти два года назад. Его друг Сэт был последним, кто его видел живым, и стал свидетелем того как Марк исчез в вспышке синего света. Теперь Марк Фишер вернулся и совершает ужасные преступления, жесточайшим образом убивает людей, и не сложно догадаться, что внутри него скрыто какое-то Зло.



    Исходник: Almost.Human.2013.BluRay.1080p.AVC.DTS-HD.MA5.1-CHDBits
    Качество фильма: BDRemux 1080p
    Тип видео: MKV
    Информация о видео: MPEG-4 AVC / 22198 kb/s / 1920x1080
    Информация о звуке #1: Russian / DTS-HD MA / 3623 kb/s (6 ch) - DVO den904 DeadSno
    Информация о звуке #2: Russian / AC3 / 192 kb/s (2 ch) - VO Хихидок
    Информация о звуке #3: English / DTS-HD MA / 3597 kb/s (6 ch) - Original
    Информация о звуке #4: English / AC3 / 192 kb/s (2 ch) - Commentary with writer/director Joe Begos Josh Ethier
    Информация о звуке #5: English / AC3 / 192 kb/s (2 ch) - Commentary with writer/director Joe Begos Josh Ethier, actor Graham Skipper, associate producer Cory Lockman
    Субтитры: Russian, English
    Дополнительно: Сохранены оригинальные чаптеры как на Blu-ray
    Скачать: Sample

    Скриншоты для ознакомления

    МедиаИнфо
    General
    Unique ID : 227268110569335462430615381118476241840 (0xAAFA3EF6E7D02189B0B7895DADFA4BB0)
    Complete name : E:Almost Human 2013 HDR BDRemux 1080p.mkv
    Format : Matroska
    Format version : Version 4 / Version 2
    File size : 15.5 GiB
    Duration : 1h 19mn
    Overall bit rate mode : Variable
    Overall bit rate : 28.0 Mbps
    Movie name : Almost Human 2013 HDR BDRemux 1080p
    Encoded date : UTC 2014-06-11 14:54:46
    Writing application : mkvmerge v7.0.0 (;Where We Going;) 64bit built on Jun 9 2014 15:16:27
    Writing library : libebml v1.3.0 + libmatroska v1.4.1
    _STATISTICS_WRITING_APP : mkvmerge v7.0.0 (;Where We Going;) 64bit built on Jun 9 2014 15:16:27
    _STATISTICS_WRITING_DATE_UTC : 2014-06-11 14:54:46
    _STATISTICS_TAGS : BPS DURATION NUMBER_OF_FRAMES NUMBER_OF_BYTES
    DURATION : 01:19:27.765000000
    NUMBER_OF_FRAMES : 446978
    NUMBER_OF_BYTES : 2143603056
    Attachment : Yes
    Video #1
    ID : 1
    Format : AVC
    Format/Info : Advanced Video Codec
    Format profile : High@L4.1
    Format settings, CABAC : Yes
    Format settings, ReFrames : 4 frames
    Codec ID : V_MPEG4/ISO/AVC
    Duration : 1h 19mn
    Bit rate mode : Constant
    Nominal bit rate : 22.2 Mbps
    Width : 1 920 pixels
    Height : 1 080 pixels
    Display aspect ratio : 16:9
    Frame rate mode : Constant
    Frame rate : 23.976 fps
    Standard : NTSC
    Color space : YUV
    Chroma subsampling : 4:2:0
    Bit depth : 8 bits
    Scan type : Progressive
    Bits/(Pixel*Frame) : 0.447
    Title : Almost Human 2013 HDR BDRemux 1080p
    Language : English
    Default : Yes
    Forced : No
    DURATION : 01:19:27.763000000
    NUMBER_OF_FRAMES : 114312
    NUMBER_OF_BYTES : 12026043127
    _STATISTICS_WRITING_APP : mkvmerge v7.0.0 (;Where We Going;) 64bit built on Jun 9 2014 15:16:27
    _STATISTICS_WRITING_DATE_UTC : 2014-06-11 14:54:46
    _STATISTICS_TAGS : BPS DURATION NUMBER_OF_FRAMES NUMBER_OF_BYTES
    Color primaries : BT.709
    Transfer characteristics : BT.709
    Matrix coefficients : BT.709
    Audio #2
    ID : 2
    Format : DTS
    Format/Info : Digital Theater Systems
    Format profile : MA / Core
    Mode : 16
    Format settings, Endianness : Big
    Codec ID : A_DTS
    Duration : 1h 19mn
    Bit rate mode : Variable
    Bit rate : Unknown / 1 509 Kbps
    Channel count : 6 channels
    Channel positions : Front: L C R, Side: L R, LFE
    Sampling rate : 48.0 KHz
    Bit depth : 24 bits
    Compression mode : Lossless / Lossy
    Title : DVO den904 DeadSno
    Language : Russian
    Default : Yes
    Forced : No
    Audio #3
    ID : 3
    Format : AC-3
    Format/Info : Audio Coding 3
    Mode extension : CM (complete main)
    Format settings, Endianness : Big
    Codec ID : A_AC3
    Duration : 1h 19mn
    Bit rate mode : Constant
    Bit rate : 192 Kbps
    Channel count : 2 channels
    Channel positions : Front: L R
    Sampling rate : 48.0 KHz
    Bit depth : 16 bits
    Compression mode : Lossy
    Stream size : 109 MiB (1%)
    Title : VO Хихидок
    Language : Russian
    Default : No
    Forced : No
    Audio #4
    ID : 4
    Format : DTS
    Format/Info : Digital Theater Systems
    Format profile : MA / Core
    Mode : 16
    Format settings, Endianness : Big
    Codec ID : A_DTS
    Duration : 1h 19mn
    Bit rate mode : Variable
    Bit rate : Unknown / 1 509 Kbps
    Channel count : 6 channels
    Channel positions : Front: L C R, Side: L R, LFE
    Sampling rate : 48.0 KHz
    Bit depth : 24 bits
    Compression mode : Lossless / Lossy
    Title : Original
    Language : English
    Default : No
    Forced : No
    Audio #5
    ID : 5
    Format : AC-3
    Format/Info : Audio Coding 3
    Mode extension : CM (complete main)
    Format settings, Endianness : Big
    Codec ID : A_AC3
    Duration : 1h 19mn
    Bit rate mode : Constant
    Bit rate : 192 Kbps
    Channel count : 2 channels
    Channel positions : Front: L R
    Sampling rate : 48.0 KHz
    Bit depth : 16 bits
    Compression mode : Lossy
    Stream size : 109 MiB (1%)
    Title : Commentary with writer/director Joe Begos Josh Ethier
    Language : English
    Default : No
    Forced : No
    Audio #6
    ID : 6
    Format : AC-3
    Format/Info : Audio Coding 3
    Mode extension : CM (complete main)
    Format settings, Endianness : Big
    Codec ID : A_AC3
    Duration : 1h 19mn
    Bit rate mode : Constant
    Bit rate : 192 Kbps
    Channel count : 2 channels
    Channel positions : Front: L R
    Sampling rate : 48.0 KHz
    Bit depth : 16 bits
    Compression mode : Lossy
    Stream size : 109 MiB (1%)
    Title : Commentary with writer/director Joe Begos Josh Ethier, actor Graham Skipper, associate producer Cory Lockman
    Language : English
    Default : No
    Forced : No
    Text #7
    ID : 7
    Format : UTF-8
    Codec ID : S_TEXT/UTF8
    Codec ID/Info : UTF-8 Plain Text
    Title : Full Хихидок
    Language : Russian
    Default : No
    Forced : No
    Text #8
    ID : 8
    Format : UTF-8
    Codec ID : S_TEXT/UTF8
    Codec ID/Info : UTF-8 Plain Text
    Title : SDH
    Language : English
    Default : No
    Forced : No
    Text #9
    ID : 9
    Format : PGS
    Muxing mode : zlib
    Codec ID : S_HDMV/PGS
    Codec ID/Info : The same subtitle format used on BDs/HD-DVDs
    Title : Full
    Language : Spanish
    Default : No
    Forced : No
    Menu
    00:00:00.000 : en: ? HDR 01: Opening Credits
    00:09:39.829 : en: ? HDR 02: Two Years Later
    00:14:18.857 : en: ? HDR 03: Need to Talk
    00:23:02.255 : en: ? HDR 04: No Good for You
    00:28:27.205 : en: ? HDR 05: Don;t Play Stupid
    00:36:02.410 : en: ? HDR 06: I Feel Strange
    00:41:53.093 : en: ? HDR 07: Something Wrong
    00:48:54.181 : en: ? HDR 08: Open Up
    00:54:20.674 : en: ? HDR 09: Who Took You?
    01:00:54.192 : en: ? HDR 10: Join Me
    01:05:52.198 : en: ? HDR 11: Please Help
    01:11:10.516 : en: ? HDR 12: Ending Credits

    Размер скачиваемого торрента: 15.53 GB (16677996331 Bytes)

    Почти человек / Almost Human (2013) BDRemux 1080p | L2, L1 торрент скачать бесплатно
    загрузка...
    Рейтинг →
     (голосов: 1, оценка 3/5, голосовать можно 1 раз )

    Другие торренты по теме:

  • Почти человек / Almost Human (2013) HDTVRip | Kerob скачать через торрент бесплатно
  • Почти человек / Almost Human (2013) HDTVRip 720p | Sub скачать через торрент бесплатно
  • Почти человек / Almost Human (2013) WEB-DLRip | LostFilm
  • Почти человек / Almost Human (2013) HDTV 720p | Kerob
  • Почти человек / Almost Human (2013) WEB-DL 1080p | BaibaKo
  • Почти человек / Almost Human (2013) WEB-DLRip | BaibaKo
  • Почти человек / Almost Human (2013) HDTV 720p | BaibaKo
  • Почти человек / Almost Human (2013) WEB-DLRip | NewStudio скачать через торрент бесплатно


    • Комментарии (0):

      Информация

      Информация

        Посетители, находящиеся в группе Гости, не могут оставлять комментарии в данной новости.

        ↓ Меню



        ↓ Опрос

        А Вы добавили сайт в закладки?
        Да
        Не


        Top 10 за месяц (Фильмы)