.
Авторизация | Регистрация
Хочешь лучшие торренты? Добавь свой email!
Добавить




Джо / Joe (2013) BDRemux 1080p | P, P2 торрент скачать бесплатно

Опубликовал: Админ | Дата: 27-02-2015, 11:10 | Просмотров: 223



Джо / Joe

Создали в: 2013
Снималось в: США
Категория жанра: драма, криминал
Время просмотра: 01:57:44
Тип перевода: Профессиональное (многоголосое) + Профессиональное (двухголосое)
Главный режиссёр: Дэвид Гордон Грин

Актеры: Николас Кейдж, Тай Шеридан, Гари Поултер, Ронни Джин Блевинс, Адриэн Мишлер, Брайан Мейс, Адж Уилсон МакФол, Сью Рок, Хезер Кафка, Бренда Исаак Бут

Сюжет фильма: В сонном городке на Миссисипи встретилось два одиноких человека. Юный Гари поставил крест на своем будущем, не зная как отвязаться от отца-алкоголика, бывший бандит Джо не желает вспоминать о прошлом. Неожиданно для самих себя они становятся друзьями.



Исходник: Joe 2013 1080p Blu-ray AVC DTS-HD MA 5.1-BAKED
Качество фильма: BDRemux 1080p
Тип видео: MKV
Информация о видео: MPEG-4 AVC / 30000 kb/s / 1920x1080
Информация о звуке #1: Russian / AC3 / 448 kb/s (6 ch) - MVO R5
Информация о звуке #2: Russian / AC3 / 384 kb/s (6 ch) - DVO Пираты
Информация о звуке #3: English / DTS-HD MA / 3582 kb/s (6 ch) - Original
Информация о звуке #4: English / AC3 / 192 kb/s (2 ch) - Commentary
Субтитры: Russian, English
Дополнительно: Сохранены оригинальные чаптеры как на Blu-ray
Скачать: Sample

Скриншоты для ознакомления

МедиаИнфо
General
Unique ID : 201166376964955983118119117682794086023 (0x97573C23B8C190FE89BD666AFCE0BE87)
Complete name : D:Joe 2013 HDR BDRemux 1080p.mkv
Format : Matroska
Format version : Version 4 / Version 2
File size : 28.5 GiB
Duration : 1h 57mn
Overall bit rate mode : Variable
Overall bit rate : 34.6 Mbps
Movie name : Joe 2013 HDR BDRemux 1080p
Encoded date : UTC 2014-06-11 09:07:55
Writing application : mkvmerge v7.0.0 (;Where We Going;) 64bit built on Jun 9 2014 15:16:27
Writing library : libebml v1.3.0 + libmatroska v1.4.1
_STATISTICS_WRITING_APP : mkvmerge v7.0.0 (;Where We Going;) 64bit built on Jun 9 2014 15:16:27
_STATISTICS_WRITING_DATE_UTC : 2014-06-11 09:07:55
_STATISTICS_TAGS : BPS DURATION NUMBER_OF_FRAMES NUMBER_OF_BYTES
DURATION : 01:57:44.523000000
NUMBER_OF_FRAMES : 662299
NUMBER_OF_BYTES : 3162858932
Attachment : Yes
Video #1
ID : 1
Format : AVC
Format/Info : Advanced Video Codec
Format profile : High@L4.1
Format settings, CABAC : Yes
Format settings, ReFrames : 4 frames
Codec ID : V_MPEG4/ISO/AVC
Duration : 1h 57mn
Bit rate mode : Variable
Maximum bit rate : 35.0 Mbps
Width : 1 920 pixels
Height : 1 080 pixels
Display aspect ratio : 16:9
Frame rate mode : Constant
Frame rate : 23.976 fps
Standard : NTSC
Color space : YUV
Chroma subsampling : 4:2:0
Bit depth : 8 bits
Scan type : Progressive
Title : Joe 2013 HDR BDRemux 1080p
Language : English
Default : Yes
Forced : No
Color primaries : BT.709
Transfer characteristics : BT.709
Matrix coefficients : BT.709
Audio #2
ID : 2
Format : AC-3
Format/Info : Audio Coding 3
Mode extension : CM (complete main)
Format settings, Endianness : Big
Codec ID : A_AC3
Duration : 1h 57mn
Bit rate mode : Constant
Bit rate : 448 Kbps
Channel count : 6 channels
Channel positions : Front: L C R, Side: L R, LFE
Sampling rate : 48.0 KHz
Bit depth : 16 bits
Compression mode : Lossy
Stream size : 377 MiB (1%)
Title : MVO R5
Language : Russian
Default : Yes
Forced : No
Audio #3
ID : 3
Format : AC-3
Format/Info : Audio Coding 3
Mode extension : CM (complete main)
Format settings, Endianness : Big
Codec ID : A_AC3
Duration : 1h 57mn
Bit rate mode : Constant
Bit rate : 384 Kbps
Channel count : 6 channels
Channel positions : Front: L C R, Side: L R, LFE
Sampling rate : 48.0 KHz
Bit depth : 16 bits
Compression mode : Lossy
Stream size : 323 MiB (1%)
Title : DVO Пираты
Language : Russian
Default : No
Forced : No
Audio #4
ID : 4
Format : DTS
Format/Info : Digital Theater Systems
Format profile : MA / Core
Mode : 16
Format settings, Endianness : Big
Codec ID : A_DTS
Duration : 1h 57mn
Bit rate mode : Variable
Bit rate : Unknown / 1 509 Kbps
Channel count : 6 channels
Channel positions : Front: L C R, Side: L R, LFE
Sampling rate : 48.0 KHz
Bit depth : 24 bits
Compression mode : Lossless / Lossy
Title : Original
Language : English
Default : No
Forced : No
Audio #5
ID : 5
Format : AC-3
Format/Info : Audio Coding 3
Mode extension : CM (complete main)
Format settings, Endianness : Big
Codec ID : A_AC3
Duration : 1h 57mn
Bit rate mode : Constant
Bit rate : 192 Kbps
Channel count : 2 channels
Channel positions : Front: L R
Sampling rate : 48.0 KHz
Bit depth : 16 bits
Compression mode : Lossy
Stream size : 162 MiB (1%)
Title : Commentary
Language : English
Default : No
Forced : No
Text #6
ID : 6
Format : UTF-8
Codec ID : S_TEXT/UTF8
Codec ID/Info : UTF-8 Plain Text
Title : Full 1
Language : Russian
Default : No
Forced : No
Text #7
ID : 7
Format : UTF-8
Codec ID : S_TEXT/UTF8
Codec ID/Info : UTF-8 Plain Text
Title : Full 2
Language : Russian
Default : No
Forced : No
Text #8
ID : 8
Format : UTF-8
Codec ID : S_TEXT/UTF8
Codec ID/Info : UTF-8 Plain Text
Title : Full 1
Language : English
Default : No
Forced : No
Text #9
ID : 9
Format : UTF-8
Codec ID : S_TEXT/UTF8
Codec ID/Info : UTF-8 Plain Text
Title : Full 2
Language : English
Default : No
Forced : No
Text #10
ID : 10
Format : UTF-8
Codec ID : S_TEXT/UTF8
Codec ID/Info : UTF-8 Plain Text
Title : SDH
Language : English
Default : No
Forced : No
Text #11
ID : 11
Format : UTF-8
Codec ID : S_TEXT/UTF8
Codec ID/Info : UTF-8 Plain Text
Title : SDH Colored
Language : English
Default : No
Forced : No
Menu
00:00:00.000 : en: ? HDR 01
00:07:15.352 : en: ? HDR 02
00:15:04.737 : en: ? HDR 03
00:22:57.626 : en: ? HDR 04
00:30:28.410 : en: ? HDR 05
00:36:18.259 : en: ? HDR 06
00:45:06.078 : en: ? HDR 07
00:51:36.135 : en: ? HDR 08
00:58:00.268 : en: ? HDR 09
01:06:51.925 : en: ? HDR 10
01:15:03.416 : en: ? HDR 11
01:21:47.861 : en: ? HDR 12
01:29:49.217 : en: ? HDR 13
01:36:16.020 : en: ? HDR 14
01:44:49.074 : en: ? HDR 15
01:52:03.759 : en: ? HDR 16

Размер скачиваемого торрента: 28.46 GB (30563728074 Bytes)

Джо / Joe (2013) BDRemux 1080p | P, P2 торрент скачать бесплатно
загрузка...
Рейтинг →
 (голосов: 1, оценка 5/5, голосовать можно 1 раз )

Другие торренты по теме:

  • Киллер Джо / Killer Joe (2011) BDRip-AVC | iPad
  • Могучий Джо Янг / Mighty Joe Young (1998) DVDRip
  • Лимонадный Джо / Limondov Joe aneb Konsk opera (1964) BDRip 720p
  • Лимонадный Джо - Стой, кто идёт (1990) FLAC
  • Знакомьтесь, Джо Блэк / Meet Joe BlackMeet Joe Black (1998) BDRip 720p
  • Джо Витале - Пробуждение сознания. 4 шага к жизни, о которой вы мечтаете (2011) PDF
  • Красавчик Джо / Beautiful Joe (2000) DVDRip от 0ptimus | P2, A
  • Джо Кидд / Joe Kidd (1972) DVDRip | Р


    • Комментарии (0):

      Информация

      Информация

        Посетители, находящиеся в группе Гости, не могут оставлять комментарии в данной новости.

        ↓ Меню



        ↓ Опрос

        А Вы добавили сайт в закладки?
        Да
        Не


        Top 10 за месяц (Фильмы)