.
Авторизация | Регистрация
» » Дом Хемингуэй / Dom Hemingway (2013) BDRip 1080p | P, L2 торрент скачать бесплатно




    Дом Хемингуэй / Dom Hemingway (2013) BDRip 1080p | P, L2 торрент скачать бесплатно

    Опубликовал: Админ | Дата: 27-02-2015, 11:10 | Просмотров: 225



    Детально о кино
    Русское название: Дом Хемингуэй
    Русское название в мировом прокате: Dom Hemingway
    Создали в: 2013
    Категория жанра: Драма, комедия, криминал
    Главный режиссер: Ричард Шепард
    Актеры: Джуд Лоу, Ричард Э. Грант, Демиан Бишир, Эмилия Кларк, Лука Франзони, Ричард Грэхэм, Джордж Суини, Марк Уингетт, Дэвид Бокэм, Ник Раггетт

    Сюжет фильма: После 12 лет проведенных за решеткой, жизнерадостный циник Дом выходит на свободу. И хотя он ничуть не утратил свои потрясающие навыки взломщика, из-за которых когда-то и угодил в тюрьму, заработать себе на жизнь он намерен другим, более изящным способом. Все эти годы он бережно хранил тайну, которая теперь, как Дом надеется, сделает его богатым. Надо лишь убедить кое-кого раскошелиться в обмен на молчание...



    Снималось в: Великобритания
    Время просмотра: 01:33:46
    Перевод текста: Профессиональный (многоголосый, закадровый) - Online movies | Любительский (двухголосый, закадровый) - Киностудия Paradox

    Файл
    Качество фильма: BDRip 1080p
    Тип видео: MKV
    Информация о видео: MPEG4/AVC, 1920x816 (2.35:1), 9193 Кбит/сек, 24.000 кадра/сек
    Информация о звуке 1: AC3, 6 каналов, 448 Кбит/сек | Online movies
    Информация о звуке 2: AC3, 6 каналов, 448 Кбит/сек | Студия Paradox
    Информация о звуке 3: AC3, 6 каналов, 448 Кбит/сек | Английский
    Информация о звуке 4: DTS, 6 каналов, 768 Кбит/сек | Английский
    Субтитры: Русские, английские
    Навигация по главам: Есть
    Информация о видеоряд: CHD

    MediaInfo:
    Общее
    Уникальный идентификатор : 248578554888518785288690901649300534080 (0xBB027CFD3F07617D845DF65AB46A3340)
    Полное имя : Dom Hemingway. (2013) BDRip 1080p.mkv
    Формат : Matroska
    Версия формата : Version 2
    Размер файла : 7,40 Гбайт
    Продолжительность : 1 ч. 33 м.
    Общий поток : 11,3 Мбит/сек
    Название фильма : Dom Hemingway. 2013
    Дата кодирования : UTC 2014-06-10 21:58:48
    Программа кодирования : mkvmerge v5.8.0 (;No Sleep / Pillow;) built on Sep 2 2012 15:37:04
    Библиотека кодирования : libebml v1.2.3 + libmatroska v1.3.0

    Видео
    Идентификатор : 1
    Формат : AVC
    Формат/Информация : Advanced Video Codec
    Профиль формата : High@L4.1
    Параметр CABAC формата : Да
    Параметр ReFrames формата : 5 кадров
    Идентификатор кодека : V_MPEG4/ISO/AVC
    Продолжительность : 1 ч. 33 м.
    Битрейт : 9193 Кбит/сек
    Ширина : 1920 пикселей
    Высота : 816 пикселей
    Соотношение сторон : 2,35:1
    Режим частоты кадров : Постоянный
    Частота кадров : 24,000 кадра/сек
    Цветовое пространство : YUV
    Субдискретизация насыщенности : 4:2:0
    Битовая глубина : 8 бит
    Тип развёртки : Прогрессивная
    Бит/(Пиксели*Кадры) : 0.244
    Размер потока : 5,87 Гбайт (79%)
    Заголовок : CHD
    Библиотека кодирования : x264 core 138 r2356 a1d3d17
    Настройки программы : cabac=1 / ref=5 / deblock=1:-3:-3 / analyse=0x3:0x113 / me=umh / subme=10 / psy=1 / psy_rd=1.00:0.05 / mixed_ref=1 / me_range=32 / chroma_me=1 / trellis=2 / 8x8dct=1 / cqm=0 / deadzone=21,11 / fast_pskip=0 / chroma_qp_offset=-2 / threads=18 / lookahead_threads=1 / sliced_threads=0 / nr=0 / decimate=1 / interlaced=0 / bluray_compat=0 / constrained_intra=0 / bframes=4 / b_pyramid=2 / b_adapt=2 / b_bias=0 / direct=3 / weightb=1 / open_gop=0 / weightp=2 / keyint=250 / keyint_min=24 / scenecut=40 / intra_refresh=0 / rc=2pass / mbtree=0 / bitrate=9193 / ratetol=1.0 / qcomp=0.70 / qpmin=0 / qpmax=69 / qpstep=4 / cplxblur=20.0 / qblur=0.5 / ip_ratio=1.40 / pb_ratio=1.30 / aq=2:1.00
    Язык : English
    Default : Да
    Forced : Нет

    Аудио #1
    Идентификатор : 2
    Формат : AC-3
    Формат/Информация : Audio Coding 3
    Расширение режима : CM (complete main)
    Параметр Endianness формата : Big
    Идентификатор кодека : A_AC3
    Продолжительность : 1 ч. 33 м.
    Вид битрейта : Постоянный
    Битрейт : 448 Кбит/сек
    Каналы : 6 каналов
    Расположение каналов : Front: L C R, Side: L R, LFE
    Частота : 48,0 КГц
    Битовая глубина : 16 бит
    Метод сжатия : С потерями
    Размер потока : 301 Мбайт (4%)
    Заголовок : 448 Kbps | Online movies
    Язык : Russian
    Default : Да
    Forced : Нет

    Аудио #2
    Идентификатор : 3
    Формат : AC-3
    Формат/Информация : Audio Coding 3
    Расширение режима : CM (complete main)
    Параметр Endianness формата : Big
    Идентификатор кодека : A_AC3
    Продолжительность : 1 ч. 33 м.
    Вид битрейта : Постоянный
    Битрейт : 448 Кбит/сек
    Каналы : 6 каналов
    Расположение каналов : Front: L C R, Side: L R, LFE
    Частота : 48,0 КГц
    Битовая глубина : 16 бит
    Метод сжатия : С потерями
    Размер потока : 301 Мбайт (4%)
    Заголовок : 448 Kbps | Paradox
    Язык : Russian
    Default : Нет
    Forced : Нет

    Аудио #3
    Идентификатор : 4
    Формат : AC-3
    Формат/Информация : Audio Coding 3
    Расширение режима : CM (complete main)
    Параметр Endianness формата : Big
    Идентификатор кодека : A_AC3
    Продолжительность : 1 ч. 33 м.
    Вид битрейта : Постоянный
    Битрейт : 448 Кбит/сек
    Каналы : 6 каналов
    Расположение каналов : Front: L C R, Side: L R, LFE
    Частота : 48,0 КГц
    Битовая глубина : 16 бит
    Метод сжатия : С потерями
    Размер потока : 301 Мбайт (4%)
    Заголовок : Eng | 448 Kbps
    Язык : English
    Default : Нет
    Forced : Нет

    Аудио #4
    Идентификатор : 5
    Формат : DTS
    Формат/Информация : Digital Theater Systems
    Режим : 16
    Параметр Endianness формата : Big
    Идентификатор кодека : A_DTS
    Продолжительность : 1 ч. 33 м.
    Вид битрейта : Постоянный
    Битрейт : 768 Кбит/сек
    Каналы : 6 каналов
    Расположение каналов : Front: L C R, Side: L R, LFE
    Частота : 48,0 КГц
    Битовая глубина : 24 бит
    Метод сжатия : С потерями
    Размер потока : 515 Мбайт (7%)
    Заголовок : Eng
    Язык : English
    Default : Нет
    Forced : Нет

    Текст #1
    Идентификатор : 6
    Формат : UTF-8
    Идентификатор кодека : S_TEXT/UTF8
    Идентификатор кодека/Информация : UTF-8 Plain Text
    Заголовок : Rus
    Язык : Russian
    Default : Нет
    Forced : Нет

    Текст #2
    Идентификатор : 7
    Формат : UTF-8
    Идентификатор кодека : S_TEXT/UTF8
    Идентификатор кодека/Информация : UTF-8 Plain Text
    Заголовок : Eng
    Язык : English
    Default : Нет
    Forced : Нет

    Меню
    00:00:00.000 : en:00:00:00.000
    00:09:03.000 : en:00:09:03.000
    00:18:11.083 : en:00:18:11.083
    00:25:12.000 : en:00:25:12.000
    00:33:03.917 : en:00:33:03.917
    00:40:41.667 : en:00:40:41.667
    00:49:16.000 : en:00:49:16.000
    00:57:46.167 : en:00:57:46.167
    01:05:01.500 : en:01:05:01.500
    01:14:03.292 : en:01:14:03.292
    01:18:30.250 : en:01:18:30.250
    01:24:48.958 : en:01:24:48.958

    Скриншоты для ознакомления:


    Релиз подготовил:
    Размер скачиваемого торрента: 7.40 GB (7950957485 Bytes)

    Дом Хемингуэй / Dom Hemingway (2013) BDRip 1080p | P, L2 торрент скачать бесплатно
    загрузка...
    Рейтинг →
     (голосов: 1, оценка 3/5, голосовать можно 1 раз )

    Другие торренты по теме:

  • Дом Хемингуэй / Dom Hemingway (2013) BDRip 720p от CINEMANIA | L2, L1 торрент скачать бесплатно
  • Дом Хемингуэй / Dom Hemingway (2013) BDRip 1080p от CINEMANIA | L2, L1 торрент скачать бесплатно
  • Дом Хемингуэй / Dom Hemingway (2013) HDRip | L2 торрент скачать бесплатно
  • Дом Хемингуэй / Dom Hemingway (2013) BDRip 720p от Leonardo and Scarabey | L | Paradox скачать через торрент бесплатно
  • Дом Хемингуэй / Dom Hemingway (2013) BDRemux 1080p | P, L2, L1 скачать через торрент бесплатно
  • Дом Хемингуэй / Dom Hemingway (2013) HDRip | P скачать через торрент бесплатно
  • Дом Хемингуэй / Dom Hemingway (2013) HDRip | P скачать через торрент бесплатно
  • Дом Хемингуэй / Dom Hemingway (2013) BDRip 720p от CINEMANIA | P, L2, L1 скачать через торрент бесплатно


    • Комментарии (0):

      Информация

      Информация

        Посетители, находящиеся в группе Гости, не могут оставлять комментарии в данной новости.

        ↓ Меню



        ↓ Опрос

        А Вы добавили сайт в закладки?
        Да
        Не


        Top 10 за неделю (Фильмы)