.
Авторизация | Регистрация
» » Волчья яма 2 / Wolf Creek 2 (2013) BDRip 1080p | L2 торрент скачать бесплатно




    Волчья яма 2 / Wolf Creek 2 (2013) BDRip 1080p | L2 торрент скачать бесплатно

    Опубликовал: Админ | Дата: 27-02-2015, 11:10 | Просмотров: 197



    Детально о кино
    Русское название: Волчья яма 2
    Русское название в мировом прокате: Wolf Creek 2
    Создали в: 2013
    Категория жанра: ужасы, триллер
    Главный режиссер: Грег МакЛин
    Актеры: Джон Джэррэт, Райан Корр, Шеннон Эшлин, Филлипп Клаус, Герард Кеннеди, Энни Байрон, Шэйн Коннор, Бен Джеррард, Хлоя Борхэм, Райан Кларк

    Сюжет фильма: Рутгер и Катарина — молодая пара, приехавшая из Европы в Австралию, чтобы провести незабываемое путешествие и своими глазами увидеть кратер потухшего вулкана Волчья Яма. Они преодолели огромное количество километров автостопом, увидели множество достопримечательностей этой страны и теперь им осталось посетить то место, ради которого они и отправились в это приключение. Все шло просто великолепно, пока им не пришлось повстречать на своем пути Мика Тэйлора — обезумевшего маньяка убийцу, совершившего не одно кровавое преступление. С этого момента молодым людям предстоит сделать все возможное для того, чтобы спасти свою жизнь...





    Снималось в: Австралия
    Время просмотра: 01:46:15
    Перевод текста: Любительский (двухголосый, закадровый) - DeadSno den904

    Файл
    Качество фильма: BDRip 1080p
    Тип видео: MKV
    Информация о видео: MPEG4/AVC, 1920x816 (2,35:1), 10.2 Мбит/сек, 23.976 кадра/сек
    Информация о звуке: AC3, 6 каналов, 640 Кбит/сек | Русский (DeadSno den904) | Английский
    Субтитры: Русские, английские
    Навигация по главам: Есть

    MediaInfo:
    Общее
    Уникальный идентификатор : 213085501922426270022384381451151535656 (0xA04EC65EF9D9EB11B55D9FE0977AEE28)
    Полное имя : Wolf Creek 2. (2013) BDRip 1080p.mkv
    Формат : Matroska
    Версия формата : Version 2
    Размер файла : 8,55 Гбайт
    Продолжительность : 1 ч. 46 м.
    Общий поток : 11,5 Мбит/сек
    Название фильма : Wolf Creek 2. 2013
    Дата кодирования : UTC 2014-06-10 19:40:59
    Программа кодирования : mkvmerge v5.8.0 (;No Sleep / Pillow;) built on Sep 2 2012 15:37:04
    Библиотека кодирования : libebml v1.2.3 + libmatroska v1.3.0

    Видео
    Идентификатор : 1
    Формат : AVC
    Формат/Информация : Advanced Video Codec
    Профиль формата : High@L4.1
    Параметр CABAC формата : Да
    Параметр ReFrames формата : 5 кадров
    Идентификатор кодека : V_MPEG4/ISO/AVC
    Продолжительность : 1 ч. 46 м.
    Битрейт : 10,2 Мбит/сек
    Ширина : 1920 пикселей
    Высота : 816 пикселей
    Соотношение сторон : 2,35:1
    Режим частоты кадров : Постоянный
    Частота кадров : 23,976 кадра/сек
    Цветовое пространство : YUV
    Субдискретизация насыщенности : 4:2:0
    Битовая глубина : 8 бит
    Тип развёртки : Прогрессивная
    Бит/(Пиксели*Кадры) : 0.273
    Размер потока : 7,43 Гбайт (87%)
    Заголовок : CHD
    Библиотека кодирования : x264 core 138 r2358 9e941d1
    Настройки программы : cabac=1 / ref=5 / deblock=1:0:0 / analyse=0x3:0x113 / me=umh / subme=10 / psy=1 / psy_rd=1.00:0.00 / mixed_ref=1 / me_range=32 / chroma_me=1 / trellis=2 / 8x8dct=1 / cqm=0 / deadzone=21,11 / fast_pskip=1 / chroma_qp_offset=-2 / threads=6 / lookahead_threads=1 / sliced_threads=0 / nr=0 / decimate=1 / interlaced=0 / bluray_compat=0 / constrained_intra=0 / bframes=6 / b_pyramid=2 / b_adapt=1 / b_bias=0 / direct=1 / weightb=1 / open_gop=0 / weightp=2 / keyint=240 / keyint_min=23 / scenecut=40 / intra_refresh=0 / rc_lookahead=40 / rc=2pass / mbtree=0 / bitrate=10240 / ratetol=1.0 / qcomp=0.70 / qpmin=0 / qpmax=69 / qpstep=4 / cplxblur=20.0 / qblur=0.5 / vbv_maxrate=62500 / vbv_bufsize=78125 / nal_hrd=none / ip_ratio=1.40 / pb_ratio=1.30 / aq=1:1.00
    Язык : English
    Default : Да
    Forced : Нет

    Аудио #1
    Идентификатор : 2
    Формат : AC-3
    Формат/Информация : Audio Coding 3
    Расширение режима : CM (complete main)
    Параметр Endianness формата : Big
    Идентификатор кодека : A_AC3
    Продолжительность : 1 ч. 46 м.
    Вид битрейта : Постоянный
    Битрейт : 640 Кбит/сек
    Каналы : 6 каналов
    Расположение каналов : Front: L C R, Side: L R, LFE
    Частота : 48,0 КГц
    Битовая глубина : 16 бит
    Метод сжатия : С потерями
    Размер потока : 486 Мбайт (6%)
    Заголовок : DeadSno den904
    Язык : Russian
    Default : Да
    Forced : Нет

    Аудио #2
    Идентификатор : 3
    Формат : AC-3
    Формат/Информация : Audio Coding 3
    Расширение режима : CM (complete main)
    Параметр Endianness формата : Big
    Идентификатор кодека : A_AC3
    Продолжительность : 1 ч. 46 м.
    Вид битрейта : Постоянный
    Битрейт : 640 Кбит/сек
    Каналы : 6 каналов
    Расположение каналов : Front: L C R, Side: L R, LFE
    Частота : 48,0 КГц
    Битовая глубина : 16 бит
    Метод сжатия : С потерями
    Размер потока : 486 Мбайт (6%)
    Заголовок : Eng
    Язык : English
    Default : Нет
    Forced : Нет

    Текст #1
    Идентификатор : 4
    Формат : UTF-8
    Идентификатор кодека : S_TEXT/UTF8
    Идентификатор кодека/Информация : UTF-8 Plain Text
    Заголовок : Full | ХихиДок
    Язык : Russian
    Default : Нет
    Forced : Нет

    Текст #2
    Идентификатор : 5
    Формат : UTF-8
    Идентификатор кодека : S_TEXT/UTF8
    Идентификатор кодека/Информация : UTF-8 Plain Text
    Заголовок : Full
    Язык : English
    Default : Нет
    Forced : Нет

    Меню
    00:00:00.000 : :IT;S AN UNDER
    00:11:48.791 : :RUTGER KATARINA
    00:21:16.233 : :STUCK IN YHE MIDDLE OF NOWHERE
    00:31:37.895 : :ESCAPE
    00:35:13.194 : :YOU NEVER STOP
    00:44:41.637 : :WHERE TO GO?
    00:53:41.259 : :YOU;LL HAVE TO DO BETTER THAN THAT
    00:59:04.541 : :SAFETY
    01:10:18.130 : :MICK TAYLOR
    01:19:21.798 : :AUSSIE HISTORY
    01:32:16.781 : :BEATING THE GAME
    01:41:16.862 : :CREDITS

    Скриншоты для ознакомления:


    Релиз подготовил:
    Размер скачиваемого торрента: 8.55 GB (9177574263 Bytes)

    Волчья яма 2 / Wolf Creek 2 (2013) BDRip 1080p | L2 торрент скачать бесплатно
    загрузка...
    Рейтинг →
     (голосов: 1, оценка 4/5, голосовать можно 1 раз )

    Другие торренты по теме:

  • Волчья яма / Wolf Creek (2005) HDRip торрент скачать бесплатно
  • Волчьи Ямы - Микрорай LP (2013) MP3 торрент скачать бесплатно
  • Волчья яма 2 / Wolf Creek 2 (2013) WEB-DLRip-AVC | L2 торрент скачать бесплатно
  • Волчья яма 2 / Wolf Creek 2 (2013) WEB-DLRip | L2 торрент скачать бесплатно
  • Волчья яма 2 / Wolf Creek 2 (2013) WEB-DL 1080p от CINEMANIA | L2 торрент скачать бесплатно
  • Волчья яма 2 / Wolf Creek 2 (2013) WEB-DL 720p от CINEMANIA | L2 торрент скачать бесплатно
  • Волчья яма 2 / Wolf Creek 2 (2013) WEB-DLRip | L1 скачать через торрент бесплатно
  • Волчья яма 2 / Wolf Creek 2 (2013) BDRip 1080p от CINEMANIA | L2, L1 торрент скачать бесплатно


    • Комментарии (0):

      Информация

      Информация

        Посетители, находящиеся в группе Гости, не могут оставлять комментарии в данной новости.

        ↓ Меню



        ↓ Опрос

        А Вы добавили сайт в закладки?
        Да
        Не


        Top 10 за неделю (Фильмы)