.
Авторизация | Регистрация
Хочешь лучшие торренты? Добавь свой email!
Добавить
» » Повелитель иллюзий / Lord of Illusions (1995) BDRip от Leon-masl | D, Theatrical Cut торрент скачать бесплатно




    Повелитель иллюзий / Lord of Illusions (1995) BDRip от Leon-masl | D, Theatrical Cut торрент скачать бесплатно

    Опубликовал: Админ | Дата: 27-02-2015, 11:10 | Просмотров: 228



    Детально о кино
    Русское название: Повелитель иллюзий
    Русское название в мировом прокате: Lord of Illusions
    Создали в: 1995
    Категория жанра: ужасы, триллер, детектив
    Главный режиссер: Клайв Баркер
    Актеры: Скотт Бакула, Кевин Дж. О’Коннор, Фамке Янссен, Дэниэл фон Барген, Джозеф Лэтимор, Шила Таузи, Сьюзен Трейлор, Эшли Кафанья-Тезоро, Майкл Анджело Стано, Барбара Патрик

    Сюжет фильма:
    Заурядное дело, которое расследует частный детектив Гарри, приобретает пугающий оборот, когда он сталкивается с тайной, окружающей всемирно знаменитого мага Филипа Свана и его красавицу жену Доротею.

    Гарри оказывается втянутым в чудовищный водоворот тайн, обмана и невообразимых ужасов. Иллюзия - трюк, но магия реальна…




    Снималось в: США
    Время просмотра: 01:48:52
    Перевод текста: Дубляж, |Варус Видео|

    Файл
    Кодек для видео: XviD
    Качество фильма: BDRip
    Информация о видео: 704x384, 23.976 fps, 1721 kbps
    Информация о звуке: 48 kHz, AC3, 2/0 (L,R) ch, ~192.00 kbps
    MI
    Общее
    Полное имя : Lord.of.Illusions.1995.BDRip.avi
    Формат : AVI
    Формат/Информация : Audio Video Interleave
    Размер файла : 1,46 Гбайт
    Продолжительность : 1 ч. 48 м.
    Общий поток : 1922 Кбит/сек
    Программа кодирования : VirtualDubMod 1.5.10.2 (build 2542/release)
    Библиотека кодирования : VirtualDubMod build 2542/release

    Видео
    Идентификатор : 0
    Формат : MPEG-4 Visual
    Профиль формата : Advanced Simple@L5
    Параметр BVOP формата : 1
    Параметр QPel формата : Нет
    Параметр GMC формата : Без точки перехода
    Параметр матрицы формата : Выборочная
    Идентификатор кодека : XVID
    Идентификатор кодека/Подсказка : XviD
    Продолжительность : 1 ч. 48 м.
    Битрейт : 1721 Кбит/сек
    Ширина : 704 пикс.
    Высота : 384 пикс.
    Соотношение сторон : 16:9
    Частота кадров : 23,976 кадр/сек
    Цветовое пространство : YUV
    Подвыборка цветности : 4:2:0
    Битовая глубина : 8 бит
    Тип развёртки : Прогрессивная
    Метод сжатия : С потерями
    Бит/(Пиксели*Кадры) : 0.265
    Размер потока : 1,31 Гбайт (90%)
    Библиотека кодирования : XviD 73

    Аудио
    Идентификатор : 1
    Формат : AC-3
    Формат/Информация : Audio Coding 3
    Расширение режима : CM (complete main)
    Идентификатор кодека : 2000
    Продолжительность : 1 ч. 48 м.
    Вид битрейта : Постоянный
    Битрейт : 192 Кбит/сек
    Канал(ы) : 2 канала(ов)
    Расположение каналов : Front: L R
    Частота : 48,0 КГц
    Битовая глубина : 16 бит
    Метод сжатия : С потерями
    Размер потока : 150 Мбайт (10%)
    Выравнивание : Разделение по промежуткам
    Продолжительность промежутка : 42 мс. (1,00 видеокадр)
    Время предзагрузки промежутка : 500 ms
    Скриншоты для ознакомления


    Релиз подготовил: Leon-masl
    Залил: leon-masl
    Размер скачиваемого торрента: 1.46 GB (1569544192 Bytes)

    Повелитель иллюзий / Lord of Illusions (1995) BDRip от Leon-masl | D, Theatrical Cut торрент скачать бесплатно
    загрузка...
    Рейтинг →
     (голосов: 1, оценка 5/5, голосовать можно 1 раз )

    Другие торренты по теме:

  • Повелитель иллюзий / Lord of Illusions (1995) DVDRip | D, A скачать через торрент бесплатно
  • Повелитель Иллюзий / Lord of Illusions (1995) BDRip-AVC от MediaClub | Theatrical Cut | D, P2, A скачать через торрент бесплатно
  • Повелитель иллюзий / Lord of Illusions (1995) BDRip 1080p скачать через торрент бесплатно


    • Комментарии (0):

      Информация

      Информация

        Посетители, находящиеся в группе Гости, не могут оставлять комментарии в данной новости.

        ↓ Меню



        ↓ Опрос

        А Вы добавили сайт в закладки?
        Да
        Не


        Top 10 за месяц (Фильмы)