.
Авторизация | Регистрация
» » Робинзон Крузо / Robinson Crusoe (1997) DVDRip от New-Team скачать через торрент бесплатно




    Робинзон Крузо / Robinson Crusoe (1997) DVDRip от New-Team скачать через торрент бесплатно

    Опубликовал: Админ | Дата: 27-02-2015, 11:10 | Просмотров: 332


    Снималось в: США
    Создали в: Miramax Films, RHI Entertainment Inc.

    Категория жанра: драма, приключения
    Создали в: 1997
    Время просмотра: 01:27:01

    Перевод текста: Профессиональный (многоголосый, закадровый)
    Оригинальная аудиодорожка: нет
    Субтитры подготовлены: нет

    Главный режиссер: Род Харди / Rod Hardy, Джордж Миллер / George Miller

    Актеры:
    Пирс Броснан, Уильям Такаку, Полли Уолкер, Йен Харт, Джеймс Фрейн, Дамиан Льюис, Бен Робертсон, Тим МакМулиан, Мартин Грэйс, Шон Броснан...

    Сюжет:
    По роману Жизнь и приключения Робинзона Крузо Дэниэля Дефо. Открывается фильм сценой дуэли на шпагах, из-за которой Робинзону Крузо и пришлось стать моряком и отправиться на встречу со своей судьбой…



    Исходник: DVD5 R5
    Тип релиза: DVDRip
    Контейнер: AVI

    Информация о видео: 704x384 (1,85:1), 25 fps, XviD ~ 1059 kbps avg, 0.157 bit/pixel
    Информация о звуке: 48 kHz, MP3 2.0, 128 kbps

    Раздача от:
    MediaInfo

    Общее
    Полное имя : Robinzon.Kruzo.1997.DVDRip-745_New-team_by_AVP_Studio.avi
    Формат : AVI
    Формат/Информация : Audio Video Interleave
    Размер файла : 745 Мбайт
    Продолжительность : 1 ч. 27 м.
    Общий поток : 1196 Кбит/сек
    Программа кодирования : VirtualDubModRus 1.5.10.2 (build 2542/release)
    Библиотека кодирования : VirtualDubMod build 2542/release

    Видео
    Идентификатор : 0
    Формат : MPEG-4 Visual
    Профиль формата : Advanced Simple@L5
    Параметр BVOP формата : 1
    Параметр QPel формата : Нет
    Параметр GMC формата : Без точки перехода
    Параметр матрицы формата : Выборочная
    Идентификатор кодека : XVID
    Идентификатор кодека/Подсказка : XviD
    Продолжительность : 1 ч. 27 м.
    Битрейт : 1059 Кбит/сек
    Ширина : 704 пикселя
    Высота : 384 пикселя
    Соотношение сторон : 1,85:1
    Частота кадров : 25,000 кадров/сек
    Цветовое пространство : YUV
    Субдискретизация насыщенности : 4:2:0
    Битовая глубина : 8 бит
    Тип развёртки : Прогрессивная
    Метод сжатия : С потерями
    Бит/(Пиксели*Кадры) : 0.157
    Размер потока : 659 Мбайт (88%)
    Библиотека кодирования : XviD 73

    Аудио
    Идентификатор : 1
    Формат : MPEG Audio
    Версия формата : Version 1
    Профиль формата : Layer 3
    Идентификатор кодека : 55
    Идентификатор кодека/Подсказка : MP3
    Продолжительность : 1 ч. 27 м.
    Вид битрейта : Постоянный
    Битрейт : 128 Кбит/сек
    Каналы : 2 канала
    Частота : 48,0 КГц
    Метод сжатия : С потерями
    Размер потока : 79,7 Мбайт (11%)
    Выравнивание : Соединение по промежуткам
    Продолжительность промежутка : 40 мс. (1,00 видеокадр)
    Время предзагрузки промежутка : 504 мс.
    Библиотека кодирования : LAME3.99r
    Залил: AVPStudio
    Размер скачиваемого торрента: 744.70 MB (780877824 Bytes)


    Робинзон Крузо / Robinson Crusoe (1997) DVDRip от New-Team скачать через торрент бесплатно
    загрузка...
    Рейтинг →
     (голосов: 1, оценка 3/5, голосовать можно 1 раз )

    Другие торренты по теме:

  • Робинзон Крузо / Robinson Crusoe (2003) DVDRip торрент скачать бесплатно
  • Робинзон Крузо: Предводитель пиратов / Selkirk, el verdadero Robinson Crusoe (2011) DVDRip | Лицензия торрент скачать бесплатно
  • Робинзон Крузо. Предводитель пиратов / Selkirk, El Verdadero Robinson Crusoe (2011) DVDRip | D | Лицензия торрент скачать бесплатно
  • Робин Гуд / Robin Hood Робинзон Крузо / Robinson Crusoe (1972-1973) DVD5 от New-Team торрент скачать бесплатно
  • Робинзон Крузо / Robinson Crusoe (1997) DVDRip от New-Team скачать через торрент бесплатно
  • Робинзон Крузо / Robinson Crusoe (1997) DVDRip-AVC от New-Team скачать через торрент бесплатно
  • Робинзон Крузо. Предводитель пиратов / Selkirk, El Verdadero Robinson Crusoe (2012) DVD5 от New-Team | D | Лицензия торрент скачать бесплатно
  • Робинзон Крузо на Марсе / Robinson Crusoe on Mars (1964) BDRip от HQCLUB торрент скачать бесплатно


    • Комментарии (0):

      Информация

      Информация

        Посетители, находящиеся в группе Гости, не могут оставлять комментарии в данной новости.

        ↓ Меню



        ↓ Опрос

        А Вы добавили сайт в закладки?
        Да
        Не


        Top 10 за неделю (Фильмы)