.
Авторизация | Регистрация
» » Император / Emperor (2012) BDRemux 1080p | P, L2, L1 скачать через торрент бесплатно




    Император / Emperor (2012) BDRemux 1080p | P, L2, L1 скачать через торрент бесплатно

    Опубликовал: Админ | Дата: 27-02-2015, 11:10 | Просмотров: 163



    Император / Emperor

    Создали в: 2012
    Снималось в: США, Япония
    Категория жанра: драма, военный, история
    Время просмотра: 01:45:32
    Тип перевода: Профессиональное (многоголосое) + Любительское (двухголосое) + Любительское (одноголосое)
    Киностудия: Krasnoff Foster Productions, Fellers Film, United Performers; Studio
    Главный режиссёр: Питер Веббер

    Актеры: Мэттью Фокс, Томми Ли Джонс, Ерико Хатсуне, Тосиюки Нисида, Масаёси Ханеда, Каори Момои, Колин Мой, Масатоши Накамура, Масато Ибу, Исао Натсуяги

    Сюжет фильма: Фильм рассказывает о днях, последовавших за капитуляцией Японии во Второй мировой войне, когда правителем Страны Восходящего солнца де-факто являлся генерал Даглас МакАртур. Одному из экспертов-японистов, генералу Боннеру Феллерсу, поручено найти ответ на непростой вопрос: следует ли признать японского императора Хирохито военным преступником и повесить?



    Исходник: Emperor.2012.BluRay.1080p.AVC.DTS-HD.MA5.1-CHDBits
    Качество фильма: BDRemux 1080p
    Тип видео: MKV
    Информация о видео: MPEG-4 AVC / 21500 kb/s / 1920x1080
    Информация о звуке #1: Russian / AC3 / 448 kb/s (6 ch) - MVO Online movies
    Информация о звуке #2: Russian / AC3 / 448 kb/s (6 ch) - DVO ELEKTRI4KA
    Информация о звуке #3: Russian / AC3 / 448 kb/s (6 ch) - VO VANO
    Информация о звуке #4: English / DTS-HD MA / 1821 kb/s (6 ch) - Original
    Информация о звуке #5: English / AC3 / 192 kb/s (2 ch) - Commentary
    Субтитры: English
    Дополнительно: Сохранены оригинальные чаптеры как на Blu-ray
    Скачать: Sample

    Скриншоты для ознакомления

    МедиаИнфо
    General
    Unique ID : 218864755943691030838162587160931205675 (0xA4A7D197EA5B40638387F26E4770022B)
    Complete name : Z:Emperor 2012 HDR BDRemux 1080p.mkv
    Format : Matroska
    Format version : Version 4 / Version 2
    File size : 18.3 GiB
    Duration : 1h 45mn
    Overall bit rate mode : Variable
    Overall bit rate : 24.9 Mbps
    Movie name : Emperor 2012 HDR BDRemux 1080p
    Encoded date : UTC 2014-06-12 06:06:19
    Writing application : mkvmerge v7.0.0 (;Where We Going;) 64bit built on Jun 9 2014 15:16:27
    Writing library : libebml v1.3.0 + libmatroska v1.4.1
    DURATION : 01:38:51.800000000
    NUMBER_OF_FRAMES : 1157
    NUMBER_OF_BYTES : 37299
    _STATISTICS_WRITING_APP : mkvmerge v7.0.0 (;Where We Going;) 64bit built on Jun 9 2014 15:16:27
    _STATISTICS_WRITING_DATE_UTC : 2014-06-12 06:06:19
    _STATISTICS_TAGS : BPS DURATION NUMBER_OF_FRAMES NUMBER_OF_BYTES
    Attachment : Yes
    Video #1
    ID : 1
    Format : AVC
    Format/Info : Advanced Video Codec
    Format profile : High@L4.1
    Format settings, CABAC : Yes
    Format settings, ReFrames : 4 frames
    Codec ID : V_MPEG4/ISO/AVC
    Duration : 1h 45mn
    Bit rate mode : Variable
    Maximum bit rate : 35.0 Mbps
    Width : 1 920 pixels
    Height : 1 080 pixels
    Display aspect ratio : 16:9
    Frame rate mode : Constant
    Frame rate : 23.976 fps
    Standard : NTSC
    Color space : YUV
    Chroma subsampling : 4:2:0
    Bit depth : 8 bits
    Scan type : Progressive
    Title : Emperor 2012 HDR BDRemux 1080p
    Language : English
    Default : Yes
    Forced : No
    Color primaries : BT.709
    Transfer characteristics : BT.709
    Matrix coefficients : BT.709
    Audio #2
    ID : 2
    Format : AC-3
    Format/Info : Audio Coding 3
    Mode extension : CM (complete main)
    Format settings, Endianness : Big
    Codec ID : A_AC3
    Duration : 1h 45mn
    Bit rate mode : Constant
    Bit rate : 448 Kbps
    Channel count : 6 channels
    Channel positions : Front: L C R, Side: L R, LFE
    Sampling rate : 48.0 KHz
    Bit depth : 16 bits
    Compression mode : Lossy
    Stream size : 338 MiB (2%)
    Title : MVO Online movies
    Language : Russian
    Default : Yes
    Forced : No
    Audio #3
    ID : 3
    Format : AC-3
    Format/Info : Audio Coding 3
    Mode extension : CM (complete main)
    Format settings, Endianness : Big
    Codec ID : A_AC3
    Duration : 1h 45mn
    Bit rate mode : Constant
    Bit rate : 448 Kbps
    Channel count : 6 channels
    Channel positions : Front: L C R, Side: L R, LFE
    Sampling rate : 48.0 KHz
    Bit depth : 16 bits
    Compression mode : Lossy
    Stream size : 338 MiB (2%)
    Title : DVO ELEKTRI4KA
    Language : Russian
    Default : No
    Forced : No
    Audio #4
    ID : 4
    Format : AC-3
    Format/Info : Audio Coding 3
    Mode extension : CM (complete main)
    Format settings, Endianness : Big
    Codec ID : A_AC3
    Duration : 1h 45mn
    Bit rate mode : Constant
    Bit rate : 448 Kbps
    Channel count : 6 channels
    Channel positions : Front: L C R, Side: L R, LFE
    Sampling rate : 48.0 KHz
    Bit depth : 16 bits
    Compression mode : Lossy
    Stream size : 338 MiB (2%)
    Title : VO VANO
    Language : Russian
    Default : No
    Forced : No
    Audio #5
    ID : 5
    Format : DTS
    Format/Info : Digital Theater Systems
    Format profile : MA / Core
    Mode : 16
    Format settings, Endianness : Big
    Codec ID : A_DTS
    Duration : 1h 45mn
    Bit rate mode : Variable
    Bit rate : Unknown / 1 509 Kbps
    Channel count : 6 channels
    Channel positions : Front: L C R, Side: L R, LFE
    Sampling rate : 48.0 KHz
    Bit depth : 16 bits
    Compression mode : Lossless / Lossy
    Title : Original
    Language : English
    Default : No
    Forced : No
    Audio #6
    ID : 6
    Format : AC-3
    Format/Info : Audio Coding 3
    Mode extension : CM (complete main)
    Format settings, Endianness : Big
    Codec ID : A_AC3
    Duration : 1h 45mn
    Bit rate mode : Constant
    Bit rate : 192 Kbps
    Channel count : 2 channels
    Channel positions : Front: L R
    Sampling rate : 48.0 KHz
    Bit depth : 16 bits
    Compression mode : Lossy
    Stream size : 145 MiB (1%)
    Title : Commentary
    Language : English
    Default : No
    Forced : No
    Text #7
    ID : 7
    Format : UTF-8
    Codec ID : S_TEXT/UTF8
    Codec ID/Info : UTF-8 Plain Text
    Title : Full
    Language : English
    Default : No
    Forced : No
    Text #8
    ID : 8
    Format : UTF-8
    Codec ID : S_TEXT/UTF8
    Codec ID/Info : UTF-8 Plain Text
    Title : SDH
    Language : English
    Default : No
    Forced : No
    Menu
    00:00:00.000 : en: ? HDR 01
    00:07:00.170 : en: ? HDR 02
    00:14:25.782 : en: ? HDR 03
    00:20:41.699 : en: ? HDR 04
    00:29:13.293 : en: ? HDR 05
    00:36:26.559 : en: ? HDR 06
    00:41:58.766 : en: ? HDR 07
    00:48:26.570 : en: ? HDR 08
    00:56:14.705 : en: ? HDR 09
    01:02:03.678 : en: ? HDR 10
    01:07:56.155 : en: ? HDR 11
    01:17:27.560 : en: ? HDR 12
    01:23:43.894 : en: ? HDR 13
    01:31:06.127 : en: ? HDR 14
    01:37:08.823 : en: ? HDR 15
    01:41:01.055 : en: ? HDR 16

    Размер скачиваемого торрента: 18.33 GB (19678778311 Bytes)

    Император / Emperor (2012) BDRemux 1080p | P, L2, L1 скачать через торрент бесплатно
    загрузка...
    Рейтинг →
     (голосов: 1, оценка 3/5, голосовать можно 1 раз )

    Другие торренты по теме:

  • Последний император / The Last Emperor (1987) BDRip 720p от Rulya74 торрент скачать бесплатно
  • OST - Мумия: Гробница императора драконов / The Mummy: Tomb of the Dragon Emperor (2008) MP3 торрент скачать бесплатно
  • Похождения императора 2: Приключения Кронка / Kronks New Groove (2005) BDRip 1080p от Freeisland торрент скачать бесплатно
  • Пекарь Императора и Император пекарей / Cisaruv pekar – Pekaruv cisar (1951) DVDRip торрент скачать бесплатно
  • Олдридж Рэй - Трилогия: Контракт на Фараоне, Император всего, Машина Орфей (1991-1992) M4B | iPad торрент скачать бесплатно
  • Похождения императора. Дилогия / The Emperors New Groove. Kronks New Groove (2000, 2005) BDRip от RG Jolly Roger торрент скачать бесплатно
  • Мумия: Гробница Императора Драконов / The Mummy: Tomb of the Dragon Emperor (2008) HDRip-AVC торрент скачать бесплатно
  • Император / Emperor (2012) DVDRip | VANO торрент скачать бесплатно


    • Комментарии (0):

      Информация

      Информация

        Посетители, находящиеся в группе Гости, не могут оставлять комментарии в данной новости.

        ↓ Меню



        ↓ Опрос

        А Вы добавили сайт в закладки?
        Да
        Не


        Top 10 за неделю (Фильмы)