.
Авторизация | Регистрация
» » Ничего себе поездочка 3 / Joy Ride 3: Road Kill (2014) BDRemux 1080p | Unrated | L1 скачать через торрент бесплатно




    Ничего себе поездочка 3 / Joy Ride 3: Road Kill (2014) BDRemux 1080p | Unrated | L1 скачать через торрент бесплатно

    Опубликовал: Админ | Дата: 27-02-2015, 11:10 | Просмотров: 424



    Ничего себе поездочка 3 / Joy Ride 3: Road Kill

    Создали в: 2014
    Снималось в: США
    Категория жанра: триллер
    Время просмотра: 01:36:22
    Тип перевода: Любительское (одноголосое)
    Киностудия: WT Canada Productions
    Главный режиссёр: Деклан О’Брайэн

    Актеры: Кирстен Праут, Бен Холлингсворт, Кен Кирзингер, Дин Армстронг, Джесси Хатч, Лила Саваста, Джанпаоло Венута, Джейк Мэнли, Сара Митич, Дж. Адам Браун

    Сюжет фильма: Команда отчаянных гонщиков отправляется в Канаду, чтобы участвовать в Ралли 1000. На своему пути они подрезают грузовик, следующий по трассе 17 - заброшенной дороге, которую людская молва окрестила Аллеей Убийств. И вот уже цель поездки отходит на второй план, и начинается гонка за жизнь...



    Исходник: Joy.Ride.3.2014.BluRay.1080p.AVC.DTS-HD.MA5.1-Nio@CHDBits
    Качество фильма: BDRemux 1080p
    Тип видео: MKV
    Информация о видео: MPEG-4 AVC / 18457 kb/s / 1920x1080
    Информация о звуке #1: Russian / AC3 / 192 kb/s (2 ch) - VO datynet
    Информация о звуке #2: English / DTS-HD MA / 4017 kb/s (6 ch) - Original
    Информация о звуке #3: English / AC3 / 224 kb/s (2 ch) - Commentary
    Субтитры: English, French, Spanish, Chinese
    Дополнительно: Сохранены оригинальные чаптеры как на Blu-ray
    Скачать: Sample

    Скриншоты для ознакомления

    МедиаИнфо
    General
    Unique ID : 176632561718517619375132971217380674005 (0x84E231A875DDDEFC8FAA37F8B6AF89D5)
    Complete name : Z:Joy Ride 3 - Road Kill 2014 Unrated HDR BDRemux 1080p.mkv
    Format : Matroska
    Format version : Version 4 / Version 2
    File size : 15.3 GiB
    Duration : 1h 36mn
    Overall bit rate mode : Variable
    Overall bit rate : 22.8 Mbps
    Movie name : Joy Ride 3: Road Kill 2014 Unrated HDR BDRemux 1080p
    Encoded date : UTC 2014-06-12 05:09:18
    Writing application : mkvmerge v7.0.0 (;Where We Going;) 64bit built on Jun 9 2014 15:16:27
    Writing library : libebml v1.3.0 + libmatroska v1.4.1
    DURATION : 01:34:44.510000000
    NUMBER_OF_FRAMES : 1122
    NUMBER_OF_BYTES : 38392
    _STATISTICS_WRITING_APP : mkvmerge v7.0.0 (;Where We Going;) 64bit built on Jun 9 2014 15:16:27
    _STATISTICS_WRITING_DATE_UTC : 2014-06-12 05:09:18
    _STATISTICS_TAGS : BPS DURATION NUMBER_OF_FRAMES NUMBER_OF_BYTES
    Attachment : Yes
    Video #1
    ID : 1
    Format : AVC
    Format/Info : Advanced Video Codec
    Format profile : High@L4.1
    Format settings, CABAC : Yes
    Format settings, ReFrames : 4 frames
    Codec ID : V_MPEG4/ISO/AVC
    Duration : 1h 36mn
    Bit rate mode : Variable
    Maximum bit rate : 40.0 Mbps
    Width : 1 920 pixels
    Height : 1 080 pixels
    Display aspect ratio : 16:9
    Frame rate mode : Constant
    Frame rate : 23.976 fps
    Color space : YUV
    Chroma subsampling : 4:2:0
    Bit depth : 8 bits
    Scan type : Progressive
    Title : Joy Ride 3: Road Kill 2014 Unrated HDR BDRemux 1080p
    Language : English
    Default : Yes
    Forced : No
    Audio #2
    ID : 2
    Format : AC-3
    Format/Info : Audio Coding 3
    Mode extension : CM (complete main)
    Format settings, Endianness : Big
    Codec ID : A_AC3
    Duration : 1h 36mn
    Bit rate mode : Constant
    Bit rate : 192 Kbps
    Channel count : 2 channels
    Channel positions : Front: L R
    Sampling rate : 48.0 KHz
    Bit depth : 16 bits
    Compression mode : Lossy
    Stream size : 132 MiB (1%)
    Title : VO datynet
    Language : Russian
    Default : Yes
    Forced : No
    Audio #3
    ID : 3
    Format : DTS
    Format/Info : Digital Theater Systems
    Format profile : MA / Core
    Mode : 16
    Format settings, Endianness : Big
    Codec ID : A_DTS
    Duration : 1h 36mn
    Bit rate mode : Variable
    Bit rate : Unknown / 1 509 Kbps
    Channel count : 6 channels
    Channel positions : Front: L C R, Side: L R, LFE
    Sampling rate : 48.0 KHz
    Bit depth : 24 bits
    Compression mode : Lossless / Lossy
    Title : Original
    Language : English
    Default : No
    Forced : No
    Audio #4
    ID : 4
    Format : AC-3
    Format/Info : Audio Coding 3
    Mode extension : CM (complete main)
    Format settings, Endianness : Big
    Codec ID : A_AC3
    Duration : 1h 36mn
    Bit rate mode : Constant
    Bit rate : 224 Kbps
    Channel count : 2 channels
    Channel positions : Front: L R
    Sampling rate : 48.0 KHz
    Bit depth : 16 bits
    Compression mode : Lossy
    Stream size : 154 MiB (1%)
    Title : Commentary
    Language : English
    Default : No
    Forced : No
    Text #5
    ID : 5
    Format : UTF-8
    Codec ID : S_TEXT/UTF8
    Codec ID/Info : UTF-8 Plain Text
    Title : SDH
    Language : English
    Default : No
    Forced : No
    Text #6
    ID : 6
    Format : PGS
    Muxing mode : zlib
    Codec ID : S_HDMV/PGS
    Codec ID/Info : The same subtitle format used on BDs/HD-DVDs
    Title : SDH
    Language : English
    Default : No
    Forced : No
    Text #7
    ID : 7
    Format : PGS
    Muxing mode : zlib
    Codec ID : S_HDMV/PGS
    Codec ID/Info : The same subtitle format used on BDs/HD-DVDs
    Title : Full
    Language : French
    Default : No
    Forced : No
    Text #8
    ID : 8
    Format : PGS
    Muxing mode : zlib
    Codec ID : S_HDMV/PGS
    Codec ID/Info : The same subtitle format used on BDs/HD-DVDs
    Title : Full
    Language : Spanish
    Default : No
    Forced : No
    Text #9
    ID : 9
    Format : PGS
    Muxing mode : zlib
    Codec ID : S_HDMV/PGS
    Codec ID/Info : The same subtitle format used on BDs/HD-DVDs
    Language : Chinese
    Default : No
    Forced : No
    Text #10
    ID : 10
    Format : PGS
    Muxing mode : zlib
    Codec ID : S_HDMV/PGS
    Codec ID/Info : The same subtitle format used on BDs/HD-DVDs
    Language : Chinese
    Default : No
    Forced : No
    Text #11
    ID : 11
    Format : PGS
    Muxing mode : zlib
    Codec ID : S_HDMV/PGS
    Codec ID/Info : The same subtitle format used on BDs/HD-DVDs
    Language : Chinese
    Default : No
    Forced : No
    Text #12
    ID : 12
    Format : PGS
    Muxing mode : zlib
    Codec ID : S_HDMV/PGS
    Codec ID/Info : The same subtitle format used on BDs/HD-DVDs
    Language : Chinese
    Default : No
    Forced : No
    Menu
    00:00:00.000 : en: ? HDR 01
    00:05:34.251 : en: ? HDR 02
    00:10:53.069 : en: ? HDR 03
    00:13:03.408 : en: ? HDR 04
    00:16:29.030 : en: ? HDR 05
    00:18:09.338 : en: ? HDR 06
    00:21:27.995 : en: ? HDR 07
    00:25:32.740 : en: ? HDR 08
    00:29:08.455 : en: ? HDR 09
    00:33:45.023 : en: ? HDR 10
    00:36:55.422 : en: ? HDR 11
    00:39:06.219 : en: ? HDR 12
    00:44:17.780 : en: ? HDR 13
    00:47:24.800 : en: ? HDR 14
    00:51:15.114 : en: ? HDR 15
    00:54:12.124 : en: ? HDR 16
    00:58:44.730 : en: ? HDR 17
    01:03:42.944 : en: ? HDR 18
    01:05:00.897 : en: ? HDR 19
    01:08:29.147 : en: ? HDR 20
    01:12:02.610 : en: ? HDR 21
    01:15:09.880 : en: ? HDR 22
    01:19:00.069 : en: ? HDR 23
    01:22:11.927 : en: ? HDR 24
    01:23:49.608 : en: ? HDR 25
    01:28:00.609 : en: ? HDR 26
    01:30:05.567 : en: ? HDR 27
    01:32:16.531 : en: ? HDR 28

    Размер скачиваемого торрента: 15.32 GB (16445393244 Bytes)

    Ничего себе поездочка 3 / Joy Ride 3: Road Kill (2014) BDRemux 1080p | Unrated | L1 скачать через торрент бесплатно
    загрузка...
    Рейтинг →
     (голосов: 1, оценка 4/5, голосовать можно 1 раз )

    Другие торренты по теме:

  • Ничего себе поездочка / Joy Ride (2001) HDTVRip-AVC | D, P торрент скачать бесплатно
  • Ничего себе поездочка 2: Смерть впереди / Joy Ride 2: Dead Ahead (2008) WEB-DLRip-AVC торрент скачать бесплатно
  • Ничего себе поездочка / Joy Ride (2001) BDRip от MediaClub | D, P торрент скачать бесплатно
  • Ничего себе поездочка / Joy Ride (2001) BDRemux 1080p от MediaClub | D, P торрент скачать бесплатно
  • Ничего себе поездочка / Joy Ride (2001) BDRip (AVC) от MediaClub | D, P торрент скачать бесплатно
  • Ничего себе поездочка / Joy Ride (2001) BDRip 720p от MediaClub | D, P торрент скачать бесплатно
  • Ничего себе поездочка / Joy Ride (2001) BDRip 1080p от MediaClub | D, P скачать через торрент бесплатно
  • Ничего себе поездочка / Joy Ride (2001) BDRip-AVC от Rulya74 скачать через торрент бесплатно


    • Комментарии (0):

      Информация

      Информация

        Посетители, находящиеся в группе Гости, не могут оставлять комментарии в данной новости.

        ↓ Меню



        ↓ Опрос

        А Вы добавили сайт в закладки?
        Да
        Не


        Top 10 за неделю (Фильмы)