.
Авторизация | Регистрация
Хочешь лучшие торренты? Добавь свой email!
Добавить
» » Лив и Мэдди / Liv and Maddie HDTVRip от Deadmauvlad | D | Disney скачать через торрент бесплатно




    Лив и Мэдди / Liv and Maddie HDTVRip от Deadmauvlad | D | Disney скачать через торрент бесплатно

    Опубликовал: Админ | Дата: 27-02-2015, 11:10 | Просмотров: 1077



    Лив и Мэдди / Liv and Maddie
    Создали в: 2014
    Снималось в: США
    Категория жанра: драма, комедия, семейный
    Время просмотра: ~00:25:00 серия
    Перевод текста: Дубляж Disney
    Субтитры: нет

    Главный режиссер: Энди Фикмен, Линда Мендоза
    Продюссер: Джон Д. Бек, Эдди П. Дельмон, Энди Фикмен, ...
    Сценарий: Джон Д. Бек, Сильвия Грин, Рон Харт, ...

    Премьера в мире: 19 июля 2013



    Актеры: Дав Камерон,Джои Брагг,Tenzing Norgay Trainor,Кали Роча,Бенжамин Кинг,Эмми Бакнер,Shelby Wulfert,Райан МакКэртан,Джессика Гарсиа,Джимми Беллинджер
    Роли дублировали Ирина Обрезкова(Лив/Мэдди) ,Елизавета Захарьева

    Сюжет: Сестры-близнецы Лив и Мэдди похожи друга на друга, как две капли воды, но их характеры и интересы совершенно разные. Лив — начинающая певица, которая мечтает покорить музыкальный олимп и стать популярной!

    В отличие от своей амбициозной сестры, Мэдди не интересует мир шоу-бизнеса, зато она играет в баскетбол лучше любого мальчишки и демонстрирует незаурядные результаты в учебе. Каждый день девочки попадают в забавные ситуации, которые помогают им стать отличной командой

    Доп. информация:
    Хочется сказать Большое спасибо Messa-fan за работу над звуком.........
    запись звука Deadmauvlad

    Качество фильма: HDTVRip
    Тип видео: AVI
    Информация о видео кодек: XviD
    Информация о звуке кодек: MP3
    Информация о видео: 624x336 (1.86:1), 23.976 fps, XviD build 73 ~716 kbps avg, 0.14 bit/pixel
    Информация о звуке#1: 48 kHz, MPEG Layer 3, 2 ch, ~128.00 kbps avg Канал Disney
    Информация о звуке#2: 48 kHz, AC3 Dolby Digital, 2/0 (L,R) ch, ~192.00 kbps avg ENG
    Релиз подготовил: Deadmauvlad
    Скриншоты для ознакомления


    MediaInfo
    Общее
    Полное имя : D:Рипы выкладка DeadmauvladРипы готовыеLiv.and.Maddie.HDTVRip.DeadmauvladMessa-fanliv.and.maddie.s01e01.hdtvrip.Deadmauvlad Messa-fan.avi
    Формат : AVI
    Формат/Информация : Audio Video Interleave
    Размер файла : 164 Мбайт
    Продолжительность : 23 м.
    Общий поток : 988 Кбит/сек
    Название фильма : liv.and.maddie.s01e01.hdtvrip.Deadmauvlad Messa-fan
    Режиссёр : Reliz Deadmauvlad Messa-fan
    Жанр : Семейный,Комедия
    Программа кодирования : VirtualDubMod 1.5.10.3 | www.virtualdub-fr.org || (build 2550/release)
    Формат оригинала/Имя : Сериал
    Правообладатель : Reliz Deadmauvlad Messa-fan

    Видео
    Идентификатор : 0
    Формат : MPEG-4 Visual
    Профиль формата : Advanced Simple@L5
    Параметр BVOP формата : 1
    Параметр QPel формата : Нет
    Параметр GMC формата : Без точки перехода
    Параметр матрицы формата : Выборочная
    Идентификатор кодека : XVID
    Идентификатор кодека/Подсказка : XviD
    Продолжительность : 23 м.
    Битрейт : 718 Кбит/сек
    Ширина : 624 пикселя
    Высота : 336 пикселей
    Соотношение сторон : 1,85:1
    Частота кадров : 23,976 кадра/сек
    Цветовое пространство : YUV
    Субдискретизация насыщенности : 4:2:0
    Битовая глубина : 8 бит
    Тип развёртки : Прогрессивная
    Метод сжатия : С потерями
    Бит/(Пиксели*Кадры) : 0.143
    Размер потока : 120 Мбайт (73%)
    Библиотека кодирования : XviD 73

    Аудио #1
    Идентификатор : 1
    Формат : MPEG Audio
    Версия формата : Version 1
    Профиль формата : Layer 3
    Идентификатор кодека : 55
    Идентификатор кодека/Подсказка : MP3
    Продолжительность : 23 м.
    Вид битрейта : Постоянный
    Битрейт : 128 Кбит/сек
    Каналы : 2 канала
    Частота : 48,0 КГц
    Метод сжатия : С потерями
    Размер потока : 21,3 Мбайт (13%)
    Выравнивание : Соединение по промежуткам
    Продолжительность промежутка : 42 мс. (1,00 видеокадр)
    Время предзагрузки промежутка : 504 мс.
    Библиотека кодирования : LAME3.99r
    Залил: DJ_V.K_TV
    Размер скачиваемого торрента: 164.46 MB (172451840 Bytes)


    Лив и Мэдди / Liv and Maddie HDTVRip от Deadmauvlad | D | Disney скачать через торрент бесплатно
    загрузка...
    Рейтинг →
     (голосов: 1, оценка 3/5, голосовать можно 1 раз )

    Другие торренты по теме:



      Комментарии (0):

      Информация

      Информация

        Посетители, находящиеся в группе Гости, не могут оставлять комментарии в данной новости.

        ↓ Меню



        ↓ Опрос

        А Вы добавили сайт в закладки?
        Да
        Не


        Top 10 за месяц (Фильмы)