.
Авторизация | Регистрация
» » Ураган / Торнадо / Nature Unleashed: Tornado (2004) DVDRip | P2 торрент скачать бесплатно




    Ураган / Торнадо / Nature Unleashed: Tornado (2004) DVDRip | P2 торрент скачать бесплатно

    Опубликовал: Админ | Дата: 27-02-2015, 11:10 | Просмотров: 303



    Детально о кино
    Русское название: Ураган / Торнадо
    Русское название в мировом прокате: Nature Unleashed: Tornado
    Создали в: 2004
    Категория жанра: ужасы, боевик, триллер
    Главный режиссер: Ален Якубович / Alan Jakubowicz
    Актеры: Дэниэл Бернхард, Рут Платт, Аня Лахири, Ларри Поттер, Джулиен Пенаруз, Стефен Шеллен, Лиза Стотхард, Каспар Зафер, Михай Фланик, Джордж Григоре...

    Сюжет фильма:
    Джошуа,переживший в детстве трагическую гибель отца-сейсмолога,работает операторам в крупной нью- йоркской телекомпании.Получив задание взять интервью у премьер-министра Румынии,занявшего этот пост благодаря своей лояльности к местным цыганам, Джош и его коллега Ники отправляются в Бухарест. Расследуя связь политика с местными цыганами, они сталкиваются с деятельностью таинственной секты, осуществляющей древние обряды и жертвоприношения, призванные вызывать демонов бури, что непостижимым образом связано с внезапно участившимися случаями возникновения торнадо. Подозревая, что все это лишь первая фаза надвигающейся катастрофы, Джош и Ники пытаются предупредить власти об опасности, но упираются в стену личных, корыстных амбиций местных чиновников. Не видя иного выхода, друзья решают провести собственное расследование.




    Снималось в: Канада
    Время просмотра: 01:29:16
    Перевод текста: Профессиональный (двухголосый закадровый)

    Файл
    Кодек для видео: XviD
    Качество фильма: DVDRip
    Информация о видео: 640x480 (1.33:1), 25 fps, XviD build 50 ~2114 kbps avg, 0.28 bit/pixel
    Информация о звуке: 48 kHz, AC3 Dolby Digital, 2/0 (L,R) ch, ~224.00 kbps avg

    Время Раздачи 11-00 до 16-00 + 20-00 до 03-00

    Скриншоты для ознакомления
    MediaInfo
    downloadNature_Unleashed_Tornado_2004.DVDRip.avi
    Формат : AVI
    Формат/Информация : Audio Video Interleave
    Размер файла : 1,46 Гбайт
    Продолжительность : 1 ч. 29 м.
    Общий поток : 2348 Кбит/сек
    Программа кодирования : VirtualDubMod 1.5.10.3 | http://www.virtualdub-fr.org || (build 2550/release)
    Библиотека кодирования : VirtualDubMod build 2550/release

    Видео
    Идентификатор : 0
    Формат : MPEG-4 Visual
    Профиль формата : Advanced Simple@L5
    Параметр BVOP формата : 3
    Параметр QPel формата : Нет
    Параметр GMC формата : Без точки перехода
    Параметр матрицы формата : Default (H.263)
    Идентификатор кодека : XVID
    Идентификатор кодека/Подсказка : XviD
    Продолжительность : 1 ч. 29 м.
    Битрейт : 2114 Кбит/сек
    Ширина : 640 пикселей
    Высота : 480 пикселей
    Соотношение сторон : 4:3
    Частота кадров : 25,000 кадров/сек
    Цветовое пространство : YUV
    Субдискретизация насыщенности : 4:2:0
    Битовая глубина : 8 бит
    Тип развёртки : Прогрессивная
    Метод сжатия : С потерями
    Бит/(Пиксели*Кадры) : 0.275
    Размер потока : 1,32 Гбайт (90%)
    Библиотека кодирования : XviD 1.2.1 (UTC 2008-12-04)

    Аудио
    Идентификатор : 1
    Формат : AC-3
    Формат/Информация : Audio Coding 3
    Расширение режима : CM (complete main)
    Параметр Endianness формата : Big
    Идентификатор кодека : 2000
    Продолжительность : 1 ч. 29 м.
    Вид битрейта : Постоянный
    Битрейт : 224 Кбит/сек
    Каналы : 2 канала
    Расположение каналов : Front: L R
    Частота : 48,0 КГц
    Битовая глубина : 16 бит
    Метод сжатия : С потерями
    Размер потока : 143 Мбайт (10%)
    Выравнивание : Разделение по промежуткам
    Продолжительность промежутка : 40 мс. (1,00 видеокадр)
    Время предзагрузки промежутка : 500 мс.

    Релиз подготовил:
    Залил: grom23
    Размер скачиваемого торрента: 1.46 GB (1572177920 Bytes)

    Ураган / Торнадо / Nature Unleashed: Tornado (2004) DVDRip | P2 торрент скачать бесплатно
    загрузка...
    Рейтинг →
     (голосов: 1, оценка 5/5, голосовать можно 1 раз )

    Другие торренты по теме:



      Комментарии (0):

      Информация

      Информация

        Посетители, находящиеся в группе Гости, не могут оставлять комментарии в данной новости.

        ↓ Меню



        ↓ Опрос

        А Вы добавили сайт в закладки?
        Да
        Не


        Top 10 за неделю (Фильмы)