.
Авторизация | Регистрация
Хочешь лучшие торренты? Добавь свой email!
Добавить
» » Прибежище / Логово / Haunt (2013) BDRemux 1080p | L2, L1 торрент скачать бесплатно




    Прибежище / Логово / Haunt (2013) BDRemux 1080p | L2, L1 торрент скачать бесплатно

    Опубликовал: Админ | Дата: 27-02-2015, 11:10 | Просмотров: 202



    Прибежище / Логово / Haunt

    Создали в: 2013
    Снималось в: США
    Категория жанра: ужасы, триллер, детектив
    Время просмотра: 01:25:37
    Тип перевода: Любительское (двухголосое) + Любительское (одноголосое)
    Киностудия: QED International, Revolver Picture Company
    Главный режиссёр: Мак Картер

    Актеры: Харрисон Джилбертсон, Лиана Либерато, Джеки Уивер, Айони Скай, Даниэль Чачран, Элла Харрис, Карл Хадра, Себастьян Майкл Барр, Брук Келли, Брайан Уиммер

    Сюжет фильма: Итан - крайне замкнутый и нелюдимый подросток, предпочитающий одиночество общению с друзьями. Однако после того, как его семья переезжает в новый дом, Итан знакомится со своей новой соседкой Самантой и находит в ней родственную душу. Вместе любопытные подростки начинают изучать историю нового дома Итана и вскоре узнают, что когда-то здесь разворачивались кошмарные события, и теперь в доме обитают совсем не дружелюбные духи...



    Исходник: Haunt.Das.boese.erwacht.2013.COMPLETE.BLURAY-SharpHD
    Качество фильма: BDRemux 1080p
    Тип видео: MKV
    Информация о видео: MPEG-4 AVC / 21992 kb/s / 1920x1080
    Информация о звуке #1: Russian / AC3 / 384 kb/s (6 ch) - DVO den904 DeadSno
    Информация о звуке #2: Russian / AC3 / 192 kb/s (2 ch) - VO den904
    Информация о звуке #3: English / DTS-HD MA / 2588 kb/s (6 ch) - Original
    Субтитры: Russian
    Дополнительно: Сохранены оригинальные чаптеры как на Blu-ray
    Скачать: Sample

    Скриншоты для ознакомления

    МедиаИнфо
    General
    Unique ID : 247153400725305981051946912067308962940 (0xB9F00376CB3A840DA9D65B926A87447C)
    Complete name : Z:Haunt 2013 GER Transfer HDR BDRemux 1080p.mkv
    Format : Matroska
    Format version : Version 4 / Version 2
    File size : 14.9 GiB
    Duration : 1h 25mn
    Overall bit rate mode : Variable
    Overall bit rate : 25.0 Mbps
    Movie name : Haunt 2013 GER Transfer HDR BDRemux 1080p
    Encoded date : UTC 2014-06-13 03:36:15
    Writing application : mkvmerge v7.0.0 (;Where We Going;) 64bit built on Jun 9 2014 15:16:27
    Writing library : libebml v1.3.0 + libmatroska v1.4.1
    DURATION : 01:25:37.170000000
    NUMBER_OF_FRAMES : 769
    NUMBER_OF_BYTES : 30257
    _STATISTICS_WRITING_APP : mkvmerge v7.0.0 (;Where We Going;) 64bit built on Jun 9 2014 15:16:27
    _STATISTICS_WRITING_DATE_UTC : 2014-06-13 03:36:15
    _STATISTICS_TAGS : BPS DURATION NUMBER_OF_FRAMES NUMBER_OF_BYTES
    Attachment : Yes
    Video #1
    ID : 1
    Format : AVC
    Format/Info : Advanced Video Codec
    Format profile : High@L4.1
    Format settings, CABAC : Yes
    Format settings, ReFrames : 4 frames
    Codec ID : V_MPEG4/ISO/AVC
    Duration : 1h 25mn
    Bit rate mode : Variable
    Maximum bit rate : 35.0 Mbps
    Width : 1 920 pixels
    Height : 1 080 pixels
    Display aspect ratio : 16:9
    Frame rate mode : Constant
    Frame rate : 24.000 fps
    Color space : YUV
    Chroma subsampling : 4:2:0
    Bit depth : 8 bits
    Scan type : Progressive
    Title : Haunt 2013 GER Transfer HDR BDRemux 1080p
    Language : English
    Default : Yes
    Forced : No
    Audio #2
    ID : 2
    Format : AC-3
    Format/Info : Audio Coding 3
    Mode extension : CM (complete main)
    Format settings, Endianness : Big
    Codec ID : A_AC3
    Duration : 1h 25mn
    Bit rate mode : Constant
    Bit rate : 384 Kbps
    Channel count : 6 channels
    Channel positions : Front: L C R, Side: L R, LFE
    Sampling rate : 48.0 KHz
    Bit depth : 16 bits
    Compression mode : Lossy
    Stream size : 235 MiB (2%)
    Title : ? VO den904 DeadSno
    Language : Russian
    Default : Yes
    Forced : No
    Audio #3
    ID : 3
    Format : AC-3
    Format/Info : Audio Coding 3
    Mode extension : CM (complete main)
    Format settings, Endianness : Big
    Codec ID : A_AC3
    Duration : 1h 25mn
    Bit rate mode : Constant
    Bit rate : 192 Kbps
    Channel count : 2 channels
    Channel positions : Front: L R
    Sampling rate : 48.0 KHz
    Bit depth : 16 bits
    Compression mode : Lossy
    Stream size : 118 MiB (1%)
    Title : ? VO den904
    Language : Russian
    Default : No
    Forced : No
    Audio #4
    ID : 4
    Format : DTS
    Format/Info : Digital Theater Systems
    Format profile : MA / Core
    Mode : 16
    Format settings, Endianness : Big
    Codec ID : A_DTS
    Duration : 1h 25mn
    Bit rate mode : Variable
    Bit rate : Unknown / 1 509 Kbps
    Channel count : 6 channels
    Channel positions : Front: L C R, Side: L R, LFE
    Sampling rate : 48.0 KHz
    Bit depth : 24 bits
    Compression mode : Lossless / Lossy
    Title : ? Original
    Language : English
    Default : No
    Forced : No
    Text #5
    ID : 5
    Format : UTF-8
    Codec ID : S_TEXT/UTF8
    Codec ID/Info : UTF-8 Plain Text
    Title : ? Full Antonio
    Language : Russian
    Default : No
    Forced : No
    Menu
    00:00:00.000 : en: ? HDR 01
    00:09:11.375 : en: ? HDR 02
    00:19:43.667 : en: ? HDR 03
    00:32:18.667 : en: ? HDR 04
    00:42:30.625 : en: ? HDR 05
    00:50:27.583 : en: ? HDR 06
    01:03:21.917 : en: ? HDR 07
    01:12:25.292 : en: ? HDR 08
    01:21:19.833 : en: ? HDR 09

    Размер скачиваемого торрента: 14.94 GB (16046259036 Bytes)

    Прибежище / Логово / Haunt (2013) BDRemux 1080p | L2, L1 торрент скачать бесплатно
    загрузка...
    Рейтинг →
     (голосов: 1, оценка 5/5, голосовать можно 1 раз )

    Другие торренты по теме:

  • Площадка для игр дьявола / Прибежище Дьявола / The Devils Playground (1976) DVDRip от olegek70 | L1
  • Точка падения / Прибежище / Point de chute (1970) DVDRip | L1
  • Прибежище / Haunt / Haunter (2013) WEB-DL 720p от CINEMANIA | L1 скачать через торрент бесплатно
  • Логово / Прибежище / Haunt (2013) WEB-DLRip | Sub
  • Прибежище / Haunt / Haunter (2013) WEB-DL 720p от CINEMANIA | L2 скачать через торрент бесплатно
  • Прибежище / Haunt (2013) WEB-DLRip | L2
  • Прибежище / Haunt / Haunter (2013) WEB-DLRip-AVC | L2
  • Прибежище / Haunt / Haunter (2013) BDRip 1080p от CINEMANIA | L2, L1 скачать через торрент бесплатно


    • Комментарии (0):

      Информация

      Информация

        Посетители, находящиеся в группе Гости, не могут оставлять комментарии в данной новости.

        ↓ Меню



        ↓ Опрос

        А Вы добавили сайт в закладки?
        Да
        Не


        Top 10 за месяц (Фильмы)