.
Авторизация | Регистрация
Хочешь лучшие торренты? Добавь свой email!
Добавить
» » Узы крови / The Blood Bond (2010) BDRip от MediaClub | P2 скачать через торрент бесплатно




    Узы крови / The Blood Bond (2010) BDRip от MediaClub | P2 скачать через торрент бесплатно

    Опубликовал: Админ | Дата: 27-02-2015, 11:10 | Просмотров: 267



    Детально о кино
    Русское название: Узы крови
    Русское название в мировом прокате: The Blood Bond
    Создали в: 2010
    Категория жанра: Боевик, триллер
    Главный режиссер: Майкл Бин, Энтони Сзето
    Актеры: Майкл Бин, Феникс Чоу, Саймон Ям, Эмма Пей, Дженнифер Бланк, Донг Фу Лин, Сяо Кэн Йе, Ши Пинг Као, Майкл Чай, Мини Ли, Кенни Ло, Томас Хо, Оливер Уильямс, Фред Сунь, Логан Со, Мастер Ву

    Сюжет фильма:
    Духовному лидеру Пирмы, страны, находящейся в состоянии гражданской войны, срочно требуется переливание крови. Чтобы спасти своего учителя Дева должна отправиться в северные земли, находящиеся под контролем повстанцев, и найти подходящего донора — Джона Тремейна…



    Снималось в: США, Китай
    Киностудия: ACE Studios, B E Productions, First Born Productions, Fundamental Films
    Время просмотра: 01:25:20
    Перевод текста: Профессиональный двухголосый (НТВ+)

    Файл
    Кодек для видео: XviD
    Качество фильма: BDRip
    Информация о видео: 1799 Кбит/с, 720x304, 24.000 кадр/с
    Информация о звуке:
    Информация о звуке #1: Русский (АС3, 2 ch, 192 Кбит/с)
    Информация о звуке #2: Английский (АС3, 6 ch, 448 Кбит/с)

    Семпл

    Скриншоты для ознакомления

    MI
    Общее
    Полное имя : Uzy.krovi.2010.BDRip.MediaClub.avi
    Формат : AVI
    Формат/Информация : Audio Video Interleave
    Размер файла : 1,46 Гбайт
    Продолжительность : 1 ч. 25 м.
    Общий поток : 2454 Кбит/сек
    Программа кодирования : VirtualDubMod 1.5.10.2 (build 2540/release)
    Библиотека кодирования : VirtualDubMod build 2540/release

    Видео
    Идентификатор : 0
    Формат : MPEG-4 Visual
    Профиль формата : Advanced Simple@L5
    Параметр BVOP формата : 2
    Параметр QPel формата : Нет
    Параметр GMC формата : Без точки перехода
    Параметр матрицы формата : Default (MPEG)
    Идентификатор кодека : XVID
    Идентификатор кодека/Подсказка : XviD
    Продолжительность : 1 ч. 25 м.
    Битрейт : 1799 Кбит/сек
    Ширина : 720 пикселей
    Высота : 304 пикселя
    Соотношение сторон : 2,35:1
    Частота кадров : 24,000 кадра/сек
    Цветовое пространство : YUV
    Субдискретизация насыщенности : 4:2:0
    Битовая глубина : 8 бит
    Тип развёртки : Прогрессивная
    Метод сжатия : С потерями
    Бит/(Пиксели*Кадры) : 0.343
    Размер потока : 1,07 Гбайт (73%)
    Библиотека кодирования : XviD 65

    Аудио #1
    Идентификатор : 1
    Формат : AC-3
    Формат/Информация : Audio Coding 3
    Расширение режима : CM (complete main)
    Параметр Endianness формата : Big
    Идентификатор кодека : 2000
    Продолжительность : 1 ч. 25 м.
    Вид битрейта : Постоянный
    Битрейт : 192 Кбит/сек
    Каналы : 2 канала
    Расположение каналов : Front: L R
    Частота : 48,0 КГц
    Битовая глубина : 16 бит
    Метод сжатия : С потерями
    Задержка видео : 28 мс.
    Размер потока : 117 Мбайт (8%)
    Выравнивание : Разделение по промежуткам
    Продолжительность промежутка : 42 мс. (1,00 видеокадр)
    Время предзагрузки промежутка : 500 мс.

    Аудио #2
    Идентификатор : 2
    Формат : AC-3
    Формат/Информация : Audio Coding 3
    Расширение режима : CM (complete main)
    Параметр Endianness формата : Big
    Идентификатор кодека : 2000
    Продолжительность : 1 ч. 25 м.
    Вид битрейта : Постоянный
    Битрейт : 448 Кбит/сек
    Каналы : 6 каналов
    Расположение каналов : Front: L C R, Side: L R, LFE
    Частота : 48,0 КГц
    Битовая глубина : 16 бит
    Метод сжатия : С потерями
    Размер потока : 273 Мбайт (18%)
    Выравнивание : Разделение по промежуткам
    Продолжительность промежутка : 42 мс. (1,00 видеокадр)
    Время предзагрузки промежутка : 500 мс.


    Релиз подготовил:
    Залил: poja
    Размер скачиваемого торрента: 1.46 GB (1570232320 Bytes)

    Узы крови / The Blood Bond (2010) BDRip от MediaClub | P2 скачать через торрент бесплатно
    загрузка...
    Рейтинг →
     (голосов: 1, оценка 5/5, голосовать можно 1 раз )

    Другие торренты по теме:

  • Call of Juarez Узы крови / Call of Juarez Bound in Blood (2009) PC | RePack от R.G. REVOLUTiON
  • Узы крови / The Blood Bond (2010) HDRip | L1
  • Call of Juarez Узы крови / Call of Juarez Bound in Blood (2009) PC | RePack by Mizantrop1337
  • Узы крови / The Blood Bond (2010) BDRip 720p от MediaClub | P2, L1 скачать через торрент бесплатно


    • Комментарии (0):

      Информация

      Информация

        Посетители, находящиеся в группе Гости, не могут оставлять комментарии в данной новости.

        ↓ Меню



        ↓ Опрос

        А Вы добавили сайт в закладки?
        Да
        Не


        Top 10 за месяц (Фильмы)