.
Авторизация | Регистрация
Хочешь лучшие торренты? Добавь свой email!
Добавить
» » Беги без оглядки / Running Scared (2006) BDRemux 1080p от NovaLan скачать через торрент бесплатно




    Беги без оглядки / Running Scared (2006) BDRemux 1080p от NovaLan скачать через торрент бесплатно

    Опубликовал: Админ | Дата: 27-02-2015, 11:10 | Просмотров: 230



    Русское название: Беги без оглядки
    Русское название в мировом прокате: Running Scared
    Создали в: 2006
    Категория жанра: Боевик, триллер, драма, криминал
    Главный режиссер: Уэйн Крамер
    Актеры: Пол Уокер, Вера Фармига, Кэмерон Брайт, Алекс Нойбергер, Чазз Пальминтери, Карел Роден, Джон Ноубл, Ивана Миличевич, Брюс Олтмен, Элизабет Митчелл, Майкл Кадлитц, Джонни Месснер, Артур Дж. Наскарелла, Айделис ДеЛеон, Дэвид Уоршофски, Джим Туи, Томас Розалес мл., Морган Джонсон, Джамба Мулимбве, Морис Ли, Виктор Цервенка, Окли Леман, Жан Кохут, Джеффри Смит, Карен Джой Сифарелли, Брайан Каспе, Райан Джеймс, Эллен Савариа, Иржи Симберски, Петр Хорачек
    Сюжет фильма:
    После того как была сорвана сделка наркоторговцев, в результате чего погибли несколько продажных полицейских, мелкому гангстеру Джоуи нужно было избавиться от оружия, оставшегося на месте перестрелки.
    Ситуация еще более осложнилась, когда сын его соседа завладел одним из пистолетов и выстрелил из него в своего отца. В итоге Джоуи вынужден был всю ночь разыскивать этого парнишку, чтобы вернуть пропажу. При этом ему пришлось скрываться от других гангстеров, а также от полиции…

    Внимание! Присутствует ненормативная лексика!


    Снималось в: США, Германия, International Production Company, Media 8 Entertainment, New Line Cinema, True Grit Productions, Zero Gravity Management
    Время просмотра: 02:01:35
    Перевод текста: Дублированный / Авторский одноголосый (Юрий Немахов, Андрей Гаврилов, Дмитрий sf@irat Штамп, Михаил Чадов) / Любительский одноголосый (Madrid) / Украинский (ТРК Украина)

    Кодек для видео: VC-1
    Качество фильма: Blu-Ray Remux 1080p
    Информация о видео: VC-1, 17985 Кбит/с, 1920x1080, 23.976 кадр/с
    Информация о звуке: Русский (DTS, 6 ch, 768 Кбит/с), (AC3, 6 ch, 448 Кбит/с), (AC3, 6 ch, 384 Кбит/с), украинский (AC3, 2 ch, 192 Кбит/с), английский (DTS-HD MA, 6 ch, 2357 Кбит/с), (AC3, 2 ch, 192 Кбит/с), немецкий (DTS-HD MA, 6 ch, 2347 Кбит/с)
    Субтитры: Русские, английские

    Дублированный - DTS, 6 ch, 768 Кбит/с
    Авторский одноголосый (Немахов) - DTS, 6 ch, 768 Кбит/с
    Авторский одноголосый (Гаврилов) - AC3, 6 ch, 448 Кбит/с
    Авторский одноголосый (Дмитрий sf@irat Штамп) - AC3, 6 ch, 384 Кбит/с
    Авторский одноголосый (Чадов) - AC3, 6 ch, 448 Кбит/с
    Любительский одноголосый (Madrid) - AC3, 6 ch, 384 Кбит/с
    Украинский (ТРК Украина) - AC3, 2 ch, 192 Кбит/с

    Инфо-файл

    Полное имя : E:Раздачи_ERunning.Scared.2006.BDRemux.1080p.NovaLan.mkv
    Формат : Matroska
    Версия формата : Version 4 / Version 2
    Размер файла : 22,3 Гбайт
    Продолжительность : 2 ч. 2 м.
    Режим общего битрейта : Переменный
    Общий поток : 26,2 Мбит/сек
    Название фильма : Running Scared 2006 - NovaLan
    Дата кодирования : UTC 2014-06-14 14:51:41
    Программа кодирования : mkvmerge v6.9.1 (;Blue Panther;) 64bit built on Apr 18 2014 18:23:38
    Библиотека кодирования : libebml v1.3.0 + libmatroska v1.4.1

    Видео
    Идентификатор : 1
    Формат : VC-1
    Профиль формата : Advanced@L3
    Идентификатор кодека : WVC1
    Идентификатор кодека/Подсказка : Microsoft
    Продолжительность : 2 ч. 2 м.
    Битрейт : 19,0 Мбит/сек
    Ширина : 1920 пикселей
    Высота : 1080 пикселей
    Соотношение сторон : 16:9
    Режим частоты кадров : Переменный
    Частота кадров : 23,976 кадра/сек
    Субдискретизация насыщенности : 4:2:0
    Битовая глубина : 8 бит
    Тип развёртки : Прогрессивная
    Метод сжатия : С потерями
    Бит/(Пиксели*Кадры) : 0.382
    Размер потока : 16,2 Гбайт (72%)
    Заголовок : Running Scared 2006 - NovaLan
    Default : Да
    Forced : Нет

    Аудио #1
    Идентификатор : 2
    Формат : DTS
    Формат/Информация : Digital Theater Systems
    Идентификатор кодека : A_DTS
    Продолжительность : 2 ч. 2 м.
    Вид битрейта : Постоянный
    Битрейт : 755 Кбит/сек
    Каналы : 6 каналов
    Расположение каналов : Front: L C R, Side: L R, LFE
    Частота : 48,0 КГц
    Битовая глубина : 24 бит
    Метод сжатия : С потерями
    Размер потока : 658 Мбайт (3%)
    Язык : Russian
    Default : Да
    Forced : Нет

    Аудио #2
    Идентификатор : 3
    Формат : DTS
    Формат/Информация : Digital Theater Systems
    Идентификатор кодека : A_DTS
    Продолжительность : 2 ч. 2 м.
    Вид битрейта : Постоянный
    Битрейт : 755 Кбит/сек
    Каналы : 6 каналов
    Расположение каналов : Front: L C R, Side: L R, LFE
    Частота : 48,0 КГц
    Битовая глубина : 24 бит
    Метод сжатия : С потерями
    Размер потока : 658 Мбайт (3%)
    Язык : Russian
    Default : Нет
    Forced : Нет

    Аудио #3
    Идентификатор : 4
    Формат : AC-3
    Формат/Информация : Audio Coding 3
    Расширение режима : CM (complete main)
    Параметр Endianness формата : Big
    Идентификатор кодека : A_AC3
    Продолжительность : 2 ч. 2 м.
    Вид битрейта : Постоянный
    Битрейт : 448 Кбит/сек
    Каналы : 6 каналов
    Расположение каналов : Front: L C R, Side: L R, LFE
    Частота : 48,0 КГц
    Битовая глубина : 16 бит
    Метод сжатия : С потерями
    Размер потока : 391 Мбайт (2%)
    Язык : Russian
    Default : Нет
    Forced : Нет

    Аудио #4
    Идентификатор : 5
    Формат : AC-3
    Формат/Информация : Audio Coding 3
    Расширение режима : CM (complete main)
    Параметр Endianness формата : Big
    Идентификатор кодека : A_AC3
    Продолжительность : 2 ч. 2 м.
    Вид битрейта : Постоянный
    Битрейт : 384 Кбит/сек
    Каналы : 6 каналов
    Расположение каналов : Front: L C R, Side: L R, LFE
    Частота : 48,0 КГц
    Битовая глубина : 16 бит
    Метод сжатия : С потерями
    Размер потока : 335 Мбайт (1%)
    Язык : Russian
    Default : Нет
    Forced : Нет

    Аудио #5
    Идентификатор : 6
    Формат : AC-3
    Формат/Информация : Audio Coding 3
    Расширение режима : CM (complete main)
    Параметр Endianness формата : Big
    Идентификатор кодека : A_AC3
    Продолжительность : 2 ч. 2 м.
    Вид битрейта : Постоянный
    Битрейт : 448 Кбит/сек
    Каналы : 6 каналов
    Расположение каналов : Front: L C R, Side: L R, LFE
    Частота : 48,0 КГц
    Битовая глубина : 16 бит
    Метод сжатия : С потерями
    Размер потока : 391 Мбайт (2%)
    Язык : Russian
    Default : Нет
    Forced : Нет

    Аудио #6
    Идентификатор : 7
    Формат : AC-3
    Формат/Информация : Audio Coding 3
    Расширение режима : CM (complete main)
    Параметр Endianness формата : Big
    Идентификатор кодека : A_AC3
    Продолжительность : 2 ч. 2 м.
    Вид битрейта : Постоянный
    Битрейт : 384 Кбит/сек
    Каналы : 6 каналов
    Расположение каналов : Front: L C R, Side: L R, LFE
    Частота : 48,0 КГц
    Битовая глубина : 16 бит
    Метод сжатия : С потерями
    Размер потока : 335 Мбайт (1%)
    Язык : Russian
    Default : Нет
    Forced : Нет

    Аудио #7
    Идентификатор : 8
    Формат : AC-3
    Формат/Информация : Audio Coding 3
    Расширение режима : CM (complete main)
    Параметр Endianness формата : Big
    Идентификатор кодека : A_AC3
    Продолжительность : 2 ч. 2 м.
    Вид битрейта : Постоянный
    Битрейт : 192 Кбит/сек
    Каналы : 2 канала
    Расположение каналов : Front: L R
    Частота : 48,0 КГц
    Битовая глубина : 16 бит
    Метод сжатия : С потерями
    Размер потока : 168 Мбайт (1%)
    Язык : Ukrainian
    Default : Нет
    Forced : Нет

    Аудио #8
    Идентификатор : 9
    Формат : DTS
    Формат/Информация : Digital Theater Systems
    Профиль формата : MA / Core
    Идентификатор кодека : A_DTS
    Продолжительность : 2 ч. 2 м.
    Вид битрейта : Переменный
    Битрейт : 1561 Кбит/сек / 1510 Кбит/сек
    Каналы : 6 каналов
    Расположение каналов : Front: L C R, Side: L R, LFE
    Частота : 48,0 КГц
    Битовая глубина : 16 бит
    Метод сжатия : Без потерь / Lossy
    Язык : English
    Default : Нет
    Forced : Нет

    Аудио #9
    Идентификатор : 10
    Формат : DTS
    Формат/Информация : Digital Theater Systems
    Профиль формата : MA / Core
    Идентификатор кодека : A_DTS
    Продолжительность : 2 ч. 2 м.
    Вид битрейта : Переменный
    Битрейт : 1561 Кбит/сек / 1510 Кбит/сек
    Каналы : 6 каналов
    Расположение каналов : Front: L C R, Side: L R, LFE
    Частота : 48,0 КГц
    Битовая глубина : 16 бит
    Метод сжатия : Без потерь / Lossy
    Язык : German
    Default : Нет
    Forced : Нет

    Аудио #10
    Идентификатор : 11
    Формат : AC-3
    Формат/Информация : Audio Coding 3
    Расширение режима : CM (complete main)
    Параметр Endianness формата : Big
    Идентификатор кодека : A_AC3
    Продолжительность : 2 ч. 2 м.
    Вид битрейта : Постоянный
    Битрейт : 192 Кбит/сек
    Каналы : 2 канала
    Расположение каналов : Front: L R
    Частота : 48,0 КГц
    Битовая глубина : 16 бит
    Метод сжатия : С потерями
    Размер потока : 168 Мбайт (1%)
    Язык : English
    Default : Нет
    Forced : Нет

    Текст #1
    Идентификатор : 12
    Формат : UTF-8
    Идентификатор кодека : S_TEXT/UTF8
    Идентификатор кодека/Информация : UTF-8 Plain Text
    Язык : Russian
    Default : Нет
    Forced : Нет

    Текст #2
    Идентификатор : 13
    Формат : UTF-8
    Идентификатор кодека : S_TEXT/UTF8
    Идентификатор кодека/Информация : UTF-8 Plain Text
    Язык : English
    Default : Нет
    Forced : Нет

    Меню
    00:00:00.000 : en:Chapter 1
    00:05:28.577 : en:Chapter 2
    00:12:45.890 : en:Chapter 3
    00:19:37.843 : en:Chapter 4
    00:26:18.702 : en:Chapter 5
    00:30:57.689 : en:Chapter 6
    00:37:08.851 : en:Chapter 7
    00:40:36.100 : en:Chapter 8
    00:50:00.956 : en:Chapter 9
    00:56:56.162 : en:Chapter 10
    01:03:09.619 : en:Chapter 11
    01:11:37.667 : en:Chapter 12
    01:19:10.537 : en:Chapter 13
    01:22:55.762 : en:Chapter 14
    01:30:16.869 : en:Chapter 15
    01:37:17.790 : en:Chapter 16
    01:40:49.001 : en:Chapter 17
    01:44:19.169 : en:Chapter 18
    01:52:12.475 : en:Chapter 19
    01:54:06.840 : en:Chapter 20
    02:01:34.829 : en:Chapter 21



    Релиз группа NovaLan
    Автор сборки Sergei7721






    Релиз подготовил:
    Залил: Sergei7721
    Размер скачиваемого торрента: 22.30 GB (23947376878 Bytes)

    Беги без оглядки / Running Scared (2006) BDRemux 1080p от NovaLan скачать через торрент бесплатно
    загрузка...
    Рейтинг →
     (голосов: 1, оценка 4/5, голосовать можно 1 раз )

    Другие торренты по теме:

  • Беги без оглядки / Running Scared (2006) HDDVDRip 1080p | D, A, P
  • Беги без оглядки / Running Scared (2006) HD-DVD Remux скачать через торрент бесплатно
  • Беги без оглядки / Running Scared (2006) HD-DVD Rip-AVC
  • Беги без оглядки / Running Scared (2006) BDRip от HQCLUB | ReRip
  • Беги без оглядки / Running Scared (2006) HDDVDRip-AVC от 0ptimus | D, A, L
  • Беги без оглядки / Running Scared (1986) HDTVRip-AVC | A, P2


    • Комментарии (0):

      Информация

      Информация

        Посетители, находящиеся в группе Гости, не могут оставлять комментарии в данной новости.

        ↓ Меню



        ↓ Опрос

        А Вы добавили сайт в закладки?
        Да
        Не


        Top 10 за месяц (Фильмы)