.
Авторизация | Регистрация
» » Император / Emperor (2012) BDRip 720p от FireBit-Films | P, L2 скачать через торрент бесплатно




    Император / Emperor (2012) BDRip 720p от FireBit-Films | P, L2 скачать через торрент бесплатно

    Опубликовал: Админ | Дата: 27-02-2015, 11:10 | Просмотров: 201



    Детально о кино
    Русское название: Император
    Русское название в мировом прокате: Emperor
    Создали в: 2012
    Категория жанра: Драма, военный, история
    Главный режиссер: Питер Веббер
    Актеры: Мэттью Фокс, Томми Ли Джонс, Ерико Хатсуне, Тосиюки Нисида, Масаёси Ханеда, Каори Момои, Колин Мой, Масатоши Накамура, Масато Ибу, Исао Натсуяги

    Сюжет фильма: Фильм рассказывает о днях, последовавших за капитуляцией Японии во Второй мировой войне, когда правителем Страны Восходящего солнца де-факто являлся генерал Даглас МакАртур. Одному из экспертов-японистов, генералу Боннеру Феллерсу, поручено найти ответ на непростой вопрос: следует ли признать японского императора Хирохито военным преступником и повесить?



    Снималось в: США, Япония, Fellers Film, Krasnoff Foster Productions
    Время просмотра: 01:45:32
    Перевод текста: Профессинальный (многоголосый, закадровый) - Online movies | Любительский (двухголосый, закадровый) - ELEKTRI4KA

    Файл
    Качество фильма: BDRip 720p
    Тип видео: MKV
    Информация о видео: MPEG4/AVC, 1280x544 (2,35:1), 23,976 кадра/сек, 4989 Кбит/сек
    Информация о звуке 1,2: AC3, 6 каналов, 448 Кбит/сек | Online movies | ELEKTRI4KA
    Информация о звуке 3: AC3, 6 каналов, 640 Кбит/сек | Английский
    Субтитры: Английские (полные + SDH)
    Навигация по главам: Есть

    MediaInfo:
    Общее
    Уникальный идентификатор : 222057371315413294480550978607558453299 (0xA70EB1AF2666AF8A8EDE001A529C6833)
    Полное имя : Emperor (2012) BDRip 720p.mkv
    Формат : Matroska
    Версия формата : Version 2
    Размер файла : 4,81 Гбайт
    Продолжительность : 1 ч. 45 м.
    Общий поток : 6521 Кбит/сек
    Название фильма : Emperor. 2012
    Дата кодирования : UTC 2014-06-14 12:48:41
    Программа кодирования : mkvmerge v5.8.0 (;No Sleep / Pillow;) built on Sep 2 2012 15:37:04
    Библиотека кодирования : libebml v1.2.3 + libmatroska v1.3.0

    Видео
    Идентификатор : 1
    Формат : AVC
    Формат/Информация : Advanced Video Codec
    Профиль формата : High@L4.1
    Параметр CABAC формата : Да
    Параметр ReFrames формата : 6 кадров
    Идентификатор кодека : V_MPEG4/ISO/AVC
    Продолжительность : 1 ч. 45 м.
    Битрейт : 4989 Кбит/сек
    Ширина : 1280 пикселей
    Высота : 544 пикселя
    Соотношение сторон : 2,35:1
    Режим частоты кадров : Постоянный
    Частота кадров : 23,976 кадра/сек
    Цветовое пространство : YUV
    Субдискретизация насыщенности : 4:2:0
    Битовая глубина : 8 бит
    Тип развёртки : Прогрессивная
    Бит/(Пиксели*Кадры) : 0.299
    Размер потока : 3,58 Гбайт (74%)
    Заголовок : BuR
    Библиотека кодирования : x264 core 125 r2208 d9d2288
    Настройки программы : cabac=1 / ref=6 / deblock=1:-1:-1 / analyse=0x3:0x133 / me=umh / subme=11 / psy=1 / psy_rd=1.00:0.10 / mixed_ref=1 / me_range=64 / chroma_me=1 / trellis=2 / 8x8dct=1 / cqm=0 / deadzone=21,11 / fast_pskip=0 / chroma_qp_offset=-3 / threads=3 / lookahead_threads=1 / sliced_threads=0 / nr=0 / decimate=1 / interlaced=0 / bluray_compat=0 / constrained_intra=0 / bframes=8 / b_pyramid=2 / b_adapt=2 / b_bias=0 / direct=3 / weightb=1 / open_gop=0 / weightp=2 / keyint=240 / keyint_min=23 / scenecut=40 / intra_refresh=0 / rc_lookahead=50 / rc=2pass / mbtree=1 / bitrate=4989 / ratetol=1.0 / qcomp=0.60 / qpmin=0 / qpmax=69 / qpstep=4 / cplxblur=20.0 / qblur=0.5 / ip_ratio=1.40 / aq=1:1.00
    Язык : English
    Default : Да
    Forced : Нет

    Аудио #1
    Идентификатор : 2
    Формат : AC-3
    Формат/Информация : Audio Coding 3
    Расширение режима : CM (complete main)
    Параметр Endianness формата : Big
    Идентификатор кодека : A_AC3
    Продолжительность : 1 ч. 45 м.
    Вид битрейта : Постоянный
    Битрейт : 448 Кбит/сек
    Каналы : 6 каналов
    Расположение каналов : Front: L C R, Side: L R, LFE
    Частота : 48,0 КГц
    Битовая глубина : 16 бит
    Метод сжатия : С потерями
    Размер потока : 338 Мбайт (7%)
    Заголовок : Online movies | DD 5.1 @ 448 kbps
    Язык : Russian
    Default : Да
    Forced : Нет

    Аудио #2
    Идентификатор : 3
    Формат : AC-3
    Формат/Информация : Audio Coding 3
    Расширение режима : CM (complete main)
    Параметр Endianness формата : Big
    Идентификатор кодека : A_AC3
    Продолжительность : 1 ч. 45 м.
    Вид битрейта : Постоянный
    Битрейт : 448 Кбит/сек
    Каналы : 6 каналов
    Расположение каналов : Front: L C R, Side: L R, LFE
    Частота : 48,0 КГц
    Битовая глубина : 16 бит
    Метод сжатия : С потерями
    Размер потока : 338 Мбайт (7%)
    Заголовок : ELEKTRI4KA | L2 | DD 5.1 @ 448 kbps
    Язык : Russian
    Default : Нет
    Forced : Нет

    Аудио #3
    Идентификатор : 4
    Формат : AC-3
    Формат/Информация : Audio Coding 3
    Расширение режима : CM (complete main)
    Параметр Endianness формата : Big
    Идентификатор кодека : A_AC3
    Продолжительность : 1 ч. 45 м.
    Вид битрейта : Постоянный
    Битрейт : 640 Кбит/сек
    Каналы : 6 каналов
    Расположение каналов : Front: L C R, Side: L R, LFE
    Частота : 48,0 КГц
    Битовая глубина : 16 бит
    Метод сжатия : С потерями
    Размер потока : 483 Мбайт (10%)
    Заголовок : DD 5.1 @ 640 kbps
    Язык : English
    Default : Нет
    Forced : Нет

    Текст #1
    Идентификатор : 5
    Формат : UTF-8
    Идентификатор кодека : S_TEXT/UTF8
    Идентификатор кодека/Информация : UTF-8 Plain Text
    Заголовок : Full
    Язык : English
    Default : Нет
    Forced : Нет

    Текст #2
    Идентификатор : 6
    Формат : UTF-8
    Идентификатор кодека : S_TEXT/UTF8
    Идентификатор кодека/Информация : UTF-8 Plain Text
    Заголовок : SDH
    Язык : English
    Default : Нет
    Forced : Нет

    Меню
    00:00:00.000 : en:00:00:00.000
    00:07:00.170 : en:00:07:00.170
    00:14:25.782 : en:00:14:25.782
    00:20:41.699 : en:00:20:41.699
    00:29:13.293 : en:00:29:13.293
    00:36:26.559 : en:00:36:26.559
    00:41:58.766 : en:00:41:58.766
    00:48:26.570 : en:00:48:26.570
    00:56:14.705 : en:00:56:14.705
    01:02:03.678 : en:01:02:03.678
    01:07:56.155 : en:01:07:56.155
    01:17:27.560 : en:01:17:27.560
    01:23:43.894 : en:01:23:43.894
    01:31:06.127 : en:01:31:06.127
    01:37:08.823 : en:01:37:08.823
    01:41:01.055 : en:01:41:01.055

    Скриншоты для ознакомления:


    Релиз подготовил: |
    Размер скачиваемого торрента: 4.81 GB (5161279342 Bytes)

    Император / Emperor (2012) BDRip 720p от FireBit-Films | P, L2 скачать через торрент бесплатно
    загрузка...
    Рейтинг →
     (голосов: 1, оценка 5/5, голосовать можно 1 раз )

    Другие торренты по теме:

  • Последний император / The Last Emperor (1987) BDRip 720p от Rulya74 торрент скачать бесплатно
  • OST - Мумия: Гробница императора драконов / The Mummy: Tomb of the Dragon Emperor (2008) MP3 торрент скачать бесплатно
  • Похождения императора 2: Приключения Кронка / Kronks New Groove (2005) BDRip 1080p от Freeisland торрент скачать бесплатно
  • Пекарь Императора и Император пекарей / Cisaruv pekar – Pekaruv cisar (1951) DVDRip торрент скачать бесплатно
  • Олдридж Рэй - Трилогия: Контракт на Фараоне, Император всего, Машина Орфей (1991-1992) M4B | iPad торрент скачать бесплатно
  • Похождения императора. Дилогия / The Emperors New Groove. Kronks New Groove (2000, 2005) BDRip от RG Jolly Roger торрент скачать бесплатно
  • Мумия: Гробница Императора Драконов / The Mummy: Tomb of the Dragon Emperor (2008) HDRip-AVC торрент скачать бесплатно
  • Император / Emperor (2012) DVDRip | VANO торрент скачать бесплатно


    • Комментарии (0):

      Информация

      Информация

        Посетители, находящиеся в группе Гости, не могут оставлять комментарии в данной новости.

        ↓ Меню



        ↓ Опрос

        А Вы добавили сайт в закладки?
        Да
        Не


        Top 10 за неделю (Фильмы)