.
Авторизация | Регистрация
Хочешь лучшие торренты? Добавь свой email!
Добавить
» » Смерть во французском саду / Pril en la demeure (1985) BDRemux от Temperest скачать через торрент бесплатно




    Смерть во французском саду / Pril en la demeure (1985) BDRemux от Temperest скачать через торрент бесплатно

    Опубликовал: Админ | Дата: 27-02-2015, 11:10 | Просмотров: 198



    Детально о кино
    Русское название: Смерть во французском саду
    Русское название в мировом прокате: P?ril en la demeure
    Создали в: 1985
    Категория жанра: триллер, драма, эротика
    Главный режиссер: Мишель Девиль / Michel Deville
    Актеры: Анемон, Ришар Боринжер, Николь Гарсия, Кристоф Малавуа, Мишель Пикколи, Анаис Жаннре,Жан-Клод Жэ, Элен Руссель, Элизабет Витали, Франк де ла Персонн

    Сюжет фильма:
    Безработного музыканта Давида Орфе нанимает богатая семья Томбстеев преподать несколько уроков игры на гитаре юной Вивианн. Давид, увлекшись матерью своей ученицы, мадам Джулией Томбстей, не подозревает, куда заведет его этот роман. Алчная Джулия использует Давида как простую марионетку в своей коварной интриге. Вскоре случится непоправимое, и он окажется в двусмысленной ситуации. Лишь двум свидетелям со стороны, кажется, не безразлична его судьба – хромой соседке из дома напротив и загадочному Даниэлю, который появляется ниоткуда в самый ответственный момент и дарит Давиду ключ к разгадке тайны...



    Снималось в: Франция
    Киностудия: Gaumont, El?film, TF1 Films Production
    Время просмотра: 01:41:39.008
    Перевод текста: Профессиональный (многоголосый закадровый) R5 Neoclassica

    Файл
    Кодек для видео: h.264
    Качество фильма: BDRemux
    Информация о видео: 1920x1080 (16:9), 24.000 fps (True film), AVC, ~32.4 Mbps, 0.651 bits/pixel
    Информация о звуке:
    Русский, 48.0 KHz, AC3, 1 ch, 192 Kbps
    Французский, 48.0 KHz, DTS-HD MA, 2ch, 861 kbps / 16-bit (DTS Core: 2.0 / 48 kHz / 768 kbps / 16-bit) двойное моно
    Субтитры:
    Французские, PGS
    Английские, PGS
    Русские, SRT(UTF-8) R5 Neoclassica

    MI
    Общее
    Уникальный идентификатор : 223288349275923226003255979764129724379 (0xA7FBC5955C9C914CAE9FE9C0B10FF7DB)
    Полное имя : H:FilmsSmert_vo_frantsuzkom_sadu.1985.BDRemux.mkv
    Формат : Matroska
    Версия формата : Version 4 / Version 2
    Размер файла : 24,2 Гбайт
    Продолжительность : 1 ч. 41 м.
    Режим общего битрейта : Переменный
    Общий поток : 34,1 Мбит/сек
    Дата кодирования : UTC 2014-06-14 10:25:43
    Программа кодирования : mkvmerge v7.0.0 (;Where We Going;) 64bit built on Jun 9 2014 15:16:27
    Библиотека кодирования : libebml v1.3.0 + libmatroska v1.4.1
    DURATION : 01:39:12.251000000
    NUMBER_OF_FRAMES : 824
    NUMBER_OF_BYTES : 55792
    _STATISTICS_WRITING_APP : mkvmerge v7.0.0 (;Where We Going;) 64bit built on Jun 9 2014 15:16:27
    _STATISTICS_WRITING_DATE_UTC : 2014-06-14 10:25:43
    _STATISTICS_TAGS : BPS DURATION NUMBER_OF_FRAMES NUMBER_OF_BYTES

    Видео
    Идентификатор : 1
    Формат : AVC
    Формат/Информация : Advanced Video Codec
    Профиль формата : High@L4.1
    Параметр CABAC формата : Да
    Параметр ReFrames формата : 4 кадра
    Параметр GOP формата : M=3, N=24
    Идентификатор кодека : V_MPEG4/ISO/AVC
    Продолжительность : 1 ч. 41 м.
    Вид битрейта : Переменный
    Максимальный битрейт : 35,0 Мбит/сек
    Ширина : 1920 пикселей
    Высота : 1080 пикселей
    Соотношение сторон : 16:9
    Режим частоты кадров : Постоянный
    Частота кадров : 24,000 кадра/сек
    Стандарт вещания : NTSC
    Цветовое пространство : YUV
    Субдискретизация насыщенности : 4:2:0
    Битовая глубина : 8 бит
    Тип развёртки : Прогрессивная
    Default : Нет
    Forced : Нет
    Основные цвета : BT.709
    Характеристики трансфера : BT.709
    Коэффициенты матрицы : BT.709

    Аудио #1
    Идентификатор : 2
    Формат : AC-3
    Формат/Информация : Audio Coding 3
    Расширение режима : CM (complete main)
    Параметр Endianness формата : Big
    Идентификатор кодека : A_AC3
    Продолжительность : 1 ч. 41 м.
    Вид битрейта : Постоянный
    Битрейт : 192 Кбит/сек
    Каналы : 1 канал
    Расположение каналов : Front: C
    Частота : 48,0 КГц
    Битовая глубина : 16 бит
    Метод сжатия : С потерями
    Размер потока : 140 Мбайт (1%)
    Язык : Russian
    Default : Да
    Forced : Нет

    Аудио #2
    Идентификатор : 3
    Формат : DTS
    Формат/Информация : Digital Theater Systems
    Профиль формата : MA / Core
    Режим : 16
    Параметр Endianness формата : Big
    Идентификатор кодека : A_DTS
    Продолжительность : 1 ч. 41 м.
    Вид битрейта : Переменный
    Битрейт : Неизвестно / 768 Кбит/сек
    Каналы : 2 канала
    Расположение каналов : Front: L R
    Частота : 48,0 КГц
    Битовая глубина : 16 бит
    Метод сжатия : Без потерь / Lossy
    Язык : French
    Default : Нет
    Forced : Нет

    Текст #1
    Идентификатор : 4
    Формат : PGS
    Режим смешивания : zlib
    Идентификатор кодека : S_HDMV/PGS
    Идентификатор кодека/Информация : The same subtitle format used on BDs/HD-DVDs
    Язык : French
    Default : Нет
    Forced : Нет

    Текст #2
    Идентификатор : 5
    Формат : PGS
    Режим смешивания : zlib
    Идентификатор кодека : S_HDMV/PGS
    Идентификатор кодека/Информация : The same subtitle format used on BDs/HD-DVDs
    Язык : English
    Default : Нет
    Forced : Нет

    Текст #3
    Идентификатор : 6
    Формат : UTF-8
    Идентификатор кодека : S_TEXT/UTF8
    Идентификатор кодека/Информация : UTF-8 Plain Text
    Язык : Russian
    Default : Нет
    Forced : Нет

    Меню
    00:00:00.000 : en:00:00:00.000
    00:07:11.667 : en:00:07:11.667
    00:15:40.792 : en:00:15:40.792
    00:23:59.000 : en:00:23:59.000
    00:34:22.208 : en:00:34:22.208
    00:41:45.583 : en:00:41:45.583
    00:50:15.292 : en:00:50:15.292
    00:58:15.083 : en:00:58:15.083
    01:03:56.875 : en:01:03:56.875
    01:05:58.125 : en:01:05:58.125
    01:23:09.292 : en:01:23:09.292
    01:33:35.125 : en:01:33:35.125


    Исходный BD от Gaumont

    http://boutique.gaumont.fr/fr/produit_5_gauedito_139143.php

    BD Info исходника

    Disc Title: PERIL_DEMEURE
    Disc Size: 30,965,473,343 bytes
    Protection: AACS
    BD-Java: No
    Extras: 50Hz Content
    BDInfo: 0.5.8

    Notes:

    BDINFO HOME:
    Cinema Squid
    http://www.cinemasquid.com/blu-ray/tools/bdinfo

    INCLUDES FORUMS REPORT FOR:
    AVS Forum Blu-ray Audio and Video Specifications Thread
    http://www.avsforum.com/avs-vb/showthread.php?t=1155731


    ********************
    PLAYLIST: 00006.MPLS
    ********************


    code
    Total Video
    Title Codec Length Movie Size Disc Size Bitrate Bitrate Main Audio Track Secondary Audio Track
    ----- ------ ------- -------------- -------------- ------- ------- ------------------ ---------------------
    00006.MPLS AVC 1:41:39 27,149,162,496 30,965,473,343 35.61 33.00 DTS-HD Master 2.0 861Kbps (48kHz/16-bit)
    /code

    code

    DISC INFO:

    Disc Title: PERIL_DEMEURE
    Disc Size: 30,965,473,343 bytes
    Protection: AACS
    BD-Java: No
    Extras: 50Hz Content
    BDInfo: 0.5.8

    PLAYLIST REPORT:

    Name: 00006.MPLS
    Length: 1:41:39.000 (h:m:s.ms)
    Size: 27,149,162,496 bytes
    Total Bitrate: 35.61 Mbps

    VIDEO:

    Codec Bitrate Deion
    ----- ------- -----------
    MPEG-4 AVC Video 33000 kbps 1080p / 24 fps / 16:9 / High Profile 4.1

    AUDIO:

    Codec Language Bitrate Deion
    ----- -------- ------- -----------
    DTS-HD Master Audio French 861 kbps 2.0 / 48 kHz / 861 kbps / 16-bit (DTS Core: 2.0 / 48 kHz / 768 kbps / 16-bit / DN -8dB)

    SUBTITLES:

    Codec Language Bitrate Deion
    ----- -------- ------- -----------
    Presentation Graphics French 24.420 kbps
    Presentation Graphics English 24.719 kbps

    FILES:

    Name Time In Length Size Total Bitrate
    ---- ------- ------ ---- -------------
    00006.M2TS 0:00:00.000 1:41:39.000 27,149,162,496 35,611

    CHAPTERS:

    Number Time In Length Avg Video Rate Max 1-Sec Rate Max 1-Sec Time Max 5-Sec Rate Max 5-Sec Time Max 10Sec Rate Max 10Sec Time Avg Frame Size Max Frame Size Max Frame Time
    ------ ------- ------ -------------- -------------- -------------- -------------- -------------- -------------- -------------- -------------- -------------- --------------
    1 0:00:00.000 0:07:11.666 31,197 kbps 48,499 kbps 00:04:28.375 39,492 kbps 00:04:28.250 37,770 kbps 00:04:28.416 162,468 bytes 912,110 bytes 00:04:04.916
    2 0:07:11.666 0:08:29.124 34,194 kbps 52,142 kbps 00:12:55.750 40,408 kbps 00:10:07.125 37,821 kbps 00:10:07.083 178,095 bytes 857,642 bytes 00:10:34.125
    3 0:15:40.791 0:08:18.208 32,744 kbps 48,450 kbps 00:16:15.541 40,062 kbps 00:21:24.875 37,838 kbps 00:21:24.833 170,541 bytes 833,075 bytes 00:16:15.750
    4 0:23:59.000 0:10:23.208 33,880 kbps 49,173 kbps 00:30:18.625 40,697 kbps 00:24:04.291 37,687 kbps 00:25:48.958 176,457 bytes 866,873 bytes 00:25:53.583
    5 0:34:22.208 0:07:23.375 33,917 kbps 50,404 kbps 00:40:09.541 40,072 kbps 00:35:32.541 37,800 kbps 00:35:32.500 176,650 bytes 852,833 bytes 00:40:10.583
    6 0:41:45.583 0:08:29.708 32,358 kbps 55,550 kbps 00:47:08.416 40,522 kbps 00:47:08.375 37,799 kbps 00:47:08.416 168,531 bytes 830,882 bytes 00:42:56.833
    7 0:50:15.291 0:07:59.791 32,130 kbps 50,556 kbps 00:52:24.458 40,349 kbps 00:56:42.333 37,686 kbps 00:57:57.583 167,346 bytes 889,115 bytes 00:52:27.333
    8 0:58:15.083 0:05:41.791 34,680 kbps 46,398 kbps 01:01:08.500 40,130 kbps 01:01:07.083 37,776 kbps 01:01:07.291 180,623 bytes 790,862 bytes 01:00:00.166
    9 1:03:56.875 0:02:01.250 34,623 kbps 45,930 kbps 01:05:55.208 37,478 kbps 01:04:55.958 36,553 kbps 01:05:37.833 180,331 bytes 838,686 bytes 01:04:56.458
    10 1:05:58.125 0:17:11.166 34,378 kbps 48,671 kbps 01:17:54.000 40,414 kbps 01:17:50.500 37,824 kbps 01:13:24.083 179,052 bytes 869,676 bytes 01:20:22.333
    11 1:23:09.291 0:10:25.833 32,555 kbps 46,572 kbps 01:29:27.166 40,265 kbps 01:29:03.208 37,526 kbps 01:29:26.333 169,557 bytes 817,030 bytes 01:28:47.208
    12 1:33:35.125 0:08:03.875 29,224 kbps 52,041 kbps 01:38:30.541 40,433 kbps 01:38:30.083 37,816 kbps 01:38:30.083 152,219 bytes 894,189 bytes 01:33:53.000

    STREAM DIAGNOSTICS:

    File PID Type Codec Language Seconds Bitrate Bytes Packets
    ---- --- ---- ----- -------- -------------- -------------- ------------- -----
    00006.M2TS 4113 (0x1011) 0x1B AVC 6098.875 33,000 25,158,167,556 136,814,704
    00006.M2TS 4352 (0x1100) 0x86 DTS-HD MA fra (French) 6098.875 861 656,368,100 4,164,955
    00006.M2TS 4608 (0x1200) 0x90 PGS fra (French) 6098.875 24 18,617,192 108,826
    00006.M2TS 4609 (0x1201) 0x90 PGS eng (English) 6098.875 25 18,845,410 109,061

    /code


    QUICK SUMMARY:

    Disc Title: PERIL_DEMEURE
    Disc Size: 30,965,473,343 bytes
    Protection: AACS
    BD-Java: No
    Playlist: 00006.MPLS
    Size: 27,149,162,496 bytes
    Length: 1:41:39.000
    Total Bitrate: 35.61 Mbps
    Video: MPEG-4 AVC Video / 33000 kbps / 1080p / 24 fps / 16:9 / High Profile 4.1
    Audio: French / DTS-HD Master Audio / 2.0 / 48 kHz / 861 kbps / 16-bit (DTS Core: 2.0 / 48 kHz / 768 kbps / 16-bit / DN -8dB)
    Subtitle: French / 24.420 kbps
    Subtitle: English / 24.719 kbps


    ********************
    PLAYLIST: 00009.MPLS
    ********************


    code
    Total Video
    Title Codec Length Movie Size Disc Size Bitrate Bitrate Main Audio Track Secondary Audio Track
    ----- ------ ------- -------------- -------------- ------- ------- ------------------ ---------------------
    00009.MPLS AVC 1:41:39 27,149,162,496 30,965,473,343 35.61 33.00 DTS-HD Master 2.0 861Kbps (48kHz/16-bit)
    /code

    code

    DISC INFO:

    Disc Title: PERIL_DEMEURE
    Disc Size: 30,965,473,343 bytes
    Protection: AACS
    BD-Java: No
    Extras: 50Hz Content
    BDInfo: 0.5.8

    PLAYLIST REPORT:

    Name: 00009.MPLS
    Length: 1:41:39.000 (h:m:s.ms)
    Size: 27,149,162,496 bytes
    Total Bitrate: 35.61 Mbps

    VIDEO:

    Codec Bitrate Deion
    ----- ------- -----------
    MPEG-4 AVC Video 33000 kbps 1080p / 24 fps / 16:9 / High Profile 4.1

    AUDIO:

    Codec Language Bitrate Deion
    ----- -------- ------- -----------
    DTS-HD Master Audio French 861 kbps 2.0 / 48 kHz / 861 kbps / 16-bit (DTS Core: 2.0 / 48 kHz / 768 kbps / 16-bit / DN -8dB)

    SUBTITLES:

    Codec Language Bitrate Deion
    ----- -------- ------- -----------
    Presentation Graphics French 24.420 kbps
    Presentation Graphics English 24.719 kbps

    FILES:

    Name Time In Length Size Total Bitrate
    ---- ------- ------ ---- -------------
    00006.M2TS 0:00:00.000 1:41:39.000 27,149,162,496 35,611

    CHAPTERS:

    Number Time In Length Avg Video Rate Max 1-Sec Rate Max 1-Sec Time Max 5-Sec Rate Max 5-Sec Time Max 10Sec Rate Max 10Sec Time Avg Frame Size Max Frame Size Max Frame Time
    ------ ------- ------ -------------- -------------- -------------- -------------- -------------- -------------- -------------- -------------- -------------- --------------
    1 0:00:00.000 0:07:11.666 31,197 kbps 48,499 kbps 00:04:28.375 39,492 kbps 00:04:28.250 37,770 kbps 00:04:28.416 162,468 bytes 912,110 bytes 00:04:04.916
    2 0:07:11.666 0:08:29.124 34,194 kbps 52,142 kbps 00:12:55.750 40,408 kbps 00:10:07.125 37,821 kbps 00:10:07.083 178,095 bytes 857,642 bytes 00:10:34.125
    3 0:15:40.791 0:08:18.208 32,744 kbps 48,450 kbps 00:16:15.541 40,062 kbps 00:21:24.875 37,838 kbps 00:21:24.833 170,541 bytes 833,075 bytes 00:16:15.750
    4 0:23:59.000 0:10:23.208 33,880 kbps 49,173 kbps 00:30:18.625 40,697 kbps 00:24:04.291 37,687 kbps 00:25:48.958 176,457 bytes 866,873 bytes 00:25:53.583
    5 0:34:22.208 0:07:23.375 33,917 kbps 50,404 kbps 00:40:09.541 40,072 kbps 00:35:32.541 37,800 kbps 00:35:32.500 176,650 bytes 852,833 bytes 00:40:10.583
    6 0:41:45.583 0:08:29.708 32,358 kbps 55,550 kbps 00:47:08.416 40,522 kbps 00:47:08.375 37,799 kbps 00:47:08.416 168,531 bytes 830,882 bytes 00:42:56.833
    7 0:50:15.291 0:07:59.791 32,130 kbps 50,556 kbps 00:52:24.458 40,349 kbps 00:56:42.333 37,686 kbps 00:57:57.583 167,346 bytes 889,115 bytes 00:52:27.333
    8 0:58:15.083 0:05:41.791 34,680 kbps 46,398 kbps 01:01:08.500 40,130 kbps 01:01:07.083 37,776 kbps 01:01:07.291 180,623 bytes 790,862 bytes 01:00:00.166
    9 1:03:56.875 0:02:01.250 34,623 kbps 45,930 kbps 01:05:55.208 37,478 kbps 01:04:55.958 36,553 kbps 01:05:37.833 180,331 bytes 838,686 bytes 01:04:56.458
    10 1:05:58.125 0:17:11.166 34,378 kbps 48,671 kbps 01:17:54.000 40,414 kbps 01:17:50.500 37,824 kbps 01:13:24.083 179,052 bytes 869,676 bytes 01:20:22.333
    11 1:23:09.291 0:10:25.833 32,555 kbps 46,572 kbps 01:29:27.166 40,265 kbps 01:29:03.208 37,526 kbps 01:29:26.333 169,557 bytes 817,030 bytes 01:28:47.208
    12 1:33:35.125 0:08:03.875 29,224 kbps 52,041 kbps 01:38:30.541 40,433 kbps 01:38:30.083 37,816 kbps 01:38:30.083 152,219 bytes 894,189 bytes 01:33:53.000

    STREAM DIAGNOSTICS:

    File PID Type Codec Language Seconds Bitrate Bytes Packets
    ---- --- ---- ----- -------- -------------- -------------- ------------- -----
    00006.M2TS 4113 (0x1011) 0x1B AVC 6098.875 33,000 25,158,167,556 136,814,704
    00006.M2TS 4352 (0x1100) 0x86 DTS-HD MA fra (French) 6098.875 861 656,368,100 4,164,955
    00006.M2TS 4608 (0x1200) 0x90 PGS fra (French) 6098.875 24 18,617,192 108,826
    00006.M2TS 4609 (0x1201) 0x90 PGS eng (English) 6098.875 25 18,845,410 109,061

    /code


    QUICK SUMMARY:

    Disc Title: PERIL_DEMEURE
    Disc Size: 30,965,473,343 bytes
    Protection: AACS
    BD-Java: No
    Playlist: 00009.MPLS
    Size: 27,149,162,496 bytes
    Length: 1:41:39.000
    Total Bitrate: 35.61 Mbps
    Video: MPEG-4 AVC Video / 33000 kbps / 1080p / 24 fps / 16:9 / High Profile 4.1
    Audio: French / DTS-HD Master Audio / 2.0 / 48 kHz / 861 kbps / 16-bit (DTS Core: 2.0 / 48 kHz / 768 kbps / 16-bit / DN -8dB)
    Subtitle: French / 24.420 kbps
    Subtitle: English / 24.719 kbps


    ********************
    PLAYLIST: 00013.MPLS
    ********************


    code
    Total Video
    Title Codec Length Movie Size Disc Size Bitrate Bitrate Main Audio Track Secondary Audio Track
    ----- ------ ------- -------------- -------------- ------- ------- ------------------ ---------------------
    00013.MPLS MPEG-2 0:45:25 1,889,138,688 30,965,473,343 5.55 5.00 DD AC3 2.0 192Kbps
    /code

    code

    DISC INFO:

    Disc Title: PERIL_DEMEURE
    Disc Size: 30,965,473,343 bytes
    Protection: AACS
    BD-Java: No
    Extras: 50Hz Content
    BDInfo: 0.5.8

    PLAYLIST REPORT:

    Name: 00013.MPLS
    Length: 0:45:25.239 (h:m:s.ms)
    Size: 1,889,138,688 bytes
    Total Bitrate: 5.55 Mbps

    VIDEO:

    Codec Bitrate Deion
    ----- ------- -----------
    MPEG-2 Video 4995 kbps 576i / 25 fps / 16:9

    AUDIO:

    Codec Language Bitrate Deion
    ----- -------- ------- -----------
    Dolby Digital Audio French 192 kbps 2.0 / 48 kHz / 192 kbps

    FILES:

    Name Time In Length Size Total Bitrate
    ---- ------- ------ ---- -------------
    00013.M2TS 0:00:00.000 0:45:25.239 1,889,138,688 5,546

    CHAPTERS:

    Number Time In Length Avg Video Rate Max 1-Sec Rate Max 1-Sec Time Max 5-Sec Rate Max 5-Sec Time Max 10Sec Rate Max 10Sec Time Avg Frame Size Max Frame Size Max Frame Time
    ------ ------- ------ -------------- -------------- -------------- -------------- -------------- -------------- -------------- -------------- -------------- --------------
    1 0:00:00.000 0:45:25.239 4,995 kbps 7,632 kbps 00:02:55.720 6,853 kbps 00:27:45.359 6,700 kbps 00:27:43.440 24,976 bytes 127,248 bytes 00:02:55.760

    STREAM DIAGNOSTICS:

    File PID Type Codec Language Seconds Bitrate Bytes Packets
    ---- --- ---- ----- -------- -------------- -------------- ------------- -----
    00013.M2TS 4113 (0x1011) 0x02 MPEG-2 2725.120 4,995 1,701,663,248 9,322,113
    00013.M2TS 4352 (0x1100) 0x81 AC3 fra (French) 2725.120 192 65,405,952 425,820

    /code


    QUICK SUMMARY:

    Disc Title: PERIL_DEMEURE
    Disc Size: 30,965,473,343 bytes
    Protection: AACS
    BD-Java: No
    Playlist: 00013.MPLS
    Size: 1,889,138,688 bytes
    Length: 0:45:25.239
    Total Bitrate: 5.55 Mbps
    Video: MPEG-2 Video / 4995 kbps / 576i / 25 fps / 16:9
    Audio: French / Dolby Digital Audio / 2.0 / 48 kHz / 192 kbps


    ********************
    PLAYLIST: 00008.MPLS
    ********************


    code
    Total Video
    Title Codec Length Movie Size Disc Size Bitrate Bitrate Main Audio Track Secondary Audio Track
    ----- ------ ------- -------------- -------------- ------- ------- ------------------ ---------------------
    00008.MPLS MPEG-2 0:24:30 1,025,851,392 30,965,473,343 5.58 5.03 DD AC3 2.0 192Kbps
    /code

    code

    DISC INFO:

    Disc Title: PERIL_DEMEURE
    Disc Size: 30,965,473,343 bytes
    Protection: AACS
    BD-Java: No
    Extras: 50Hz Content
    BDInfo: 0.5.8

    PLAYLIST REPORT:

    Name: 00008.MPLS
    Length: 0:24:30.400 (h:m:s.ms)
    Size: 1,025,851,392 bytes
    Total Bitrate: 5.58 Mbps

    VIDEO:

    Codec Bitrate Deion
    ----- ------- -----------
    MPEG-2 Video 5030 kbps 576i / 25 fps / 16:9

    AUDIO:

    Codec Language Bitrate Deion
    ----- -------- ------- -----------
    Dolby Digital Audio French 192 kbps 2.0 / 48 kHz / 192 kbps

    FILES:

    Name Time In Length Size Total Bitrate
    ---- ------- ------ ---- -------------
    00008.M2TS 0:00:00.000 0:24:30.400 1,025,851,392 5,581

    CHAPTERS:

    Number Time In Length Avg Video Rate Max 1-Sec Rate Max 1-Sec Time Max 5-Sec Rate Max 5-Sec Time Max 10Sec Rate Max 10Sec Time Avg Frame Size Max Frame Size Max Frame Time
    ------ ------- ------ -------------- -------------- -------------- -------------- -------------- -------------- -------------- -------------- -------------- --------------
    1 0:00:00.000 0:24:30.400 5,030 kbps 7,321 kbps 00:00:08.800 6,724 kbps 00:07:25.360 6,386 kbps 00:00:01.920 25,148 bytes 119,338 bytes 00:17:45.480

    STREAM DIAGNOSTICS:

    File PID Type Codec Language Seconds Bitrate Bytes Packets
    ---- --- ---- ----- -------- -------------- -------------- ------------- -----
    00008.M2TS 4113 (0x1011) 0x02 MPEG-2 1470.280 5,030 924,440,186 5,063,930
    00008.M2TS 4352 (0x1100) 0x81 AC3 fra (French) 1470.280 192 35,289,600 229,750

    /code


    QUICK SUMMARY:

    Disc Title: PERIL_DEMEURE
    Disc Size: 30,965,473,343 bytes
    Protection: AACS
    BD-Java: No
    Playlist: 00008.MPLS
    Size: 1,025,851,392 bytes
    Length: 0:24:30.400
    Total Bitrate: 5.58 Mbps
    Video: MPEG-2 Video / 5030 kbps / 576i / 25 fps / 16:9
    Audio: French / Dolby Digital Audio / 2.0 / 48 kHz / 192 kbps


    ********************
    PLAYLIST: 00007.MPLS
    ********************


    code
    Total Video
    Title Codec Length Movie Size Disc Size Bitrate Bitrate Main Audio Track Secondary Audio Track
    ----- ------ ------- -------------- -------------- ------- ------- ------------------ ---------------------
    00007.MPLS AVC 0:02:06 594,597,888 30,965,473,343 37.65 35.00 DTS-HD Master 2.0 874Kbps (48kHz/16-bit)
    /code

    code

    DISC INFO:

    Disc Title: PERIL_DEMEURE
    Disc Size: 30,965,473,343 bytes
    Protection: AACS
    BD-Java: No
    Extras: 50Hz Content
    BDInfo: 0.5.8

    PLAYLIST REPORT:

    Name: 00007.MPLS
    Length: 0:02:06.333 (h:m:s.ms)
    Size: 594,597,888 bytes
    Total Bitrate: 37.65 Mbps

    VIDEO:

    Codec Bitrate Deion
    ----- ------- -----------
    MPEG-4 AVC Video 34999 kbps 1080p / 24 fps / 16:9 / High Profile 4.1

    AUDIO:

    Codec Language Bitrate Deion
    ----- -------- ------- -----------
    DTS-HD Master Audio French 874 kbps 2.0 / 48 kHz / 874 kbps / 16-bit (DTS Core: 2.0 / 48 kHz / 768 kbps / 16-bit / DN -8dB)

    FILES:

    Name Time In Length Size Total Bitrate
    ---- ------- ------ ---- -------------
    00007.M2TS 0:00:00.000 0:02:06.333 594,597,888 37,653

    CHAPTERS:

    Number Time In Length Avg Video Rate Max 1-Sec Rate Max 1-Sec Time Max 5-Sec Rate Max 5-Sec Time Max 10Sec Rate Max 10Sec Time Avg Frame Size Max Frame Size Max Frame Time
    ------ ------- ------ -------------- -------------- -------------- -------------- -------------- -------------- -------------- -------------- -------------- --------------
    1 0:00:00.000 0:02:06.333 34,999 kbps 62,389 kbps 00:00:02.875 38,706 kbps 00:00:02.083 36,376 kbps 00:00:02.250 182,288 bytes 621,048 bytes 00:00:39.583

    STREAM DIAGNOSTICS:

    File PID Type Codec Language Seconds Bitrate Bytes Packets
    ---- --- ---- ----- -------- -------------- -------------- ------------- -----
    00007.M2TS 4113 (0x1011) 0x1B AVC 126.208 35,034 552,697,220 3,005,526
    00007.M2TS 4352 (0x1100) 0x86 DTS-HD MA fra (French) 126.208 875 13,803,880 87,066

    /code


    QUICK SUMMARY:

    Disc Title: PERIL_DEMEURE
    Disc Size: 30,965,473,343 bytes
    Protection: AACS
    BD-Java: No
    Playlist: 00007.MPLS
    Size: 594,597,888 bytes
    Length: 0:02:06.333
    Total Bitrate: 37.65 Mbps
    Video: MPEG-4 AVC Video / 34999 kbps / 1080p / 24 fps / 16:9 / High Profile 4.1
    Audio: French / DTS-HD Master Audio / 2.0 / 48 kHz / 874 kbps / 16-bit (DTS Core: 2.0 / 48 kHz / 768 kbps / 16-bit / DN -8dB)


    ********************
    PLAYLIST: 00002.MPLS
    ********************


    code
    Total Video
    Title Codec Length Movie Size Disc Size Bitrate Bitrate Main Audio Track Secondary Audio Track
    ----- ------ ------- -------------- -------------- ------- ------- ------------------ ---------------------
    00002.MPLS AVC 0:00:42 63,043,584 30,965,473,343 11.87 11.30
    /code

    code

    DISC INFO:

    Disc Title: PERIL_DEMEURE
    Disc Size: 30,965,473,343 bytes
    Protection: AACS
    BD-Java: No
    Extras: 50Hz Content
    BDInfo: 0.5.8

    PLAYLIST REPORT:

    Name: 00002.MPLS
    Length: 0:00:42.500 (h:m:s.ms)
    Size: 63,043,584 bytes
    Total Bitrate: 11.87 Mbps

    VIDEO:

    Codec Bitrate Deion
    ----- ------- -----------
    MPEG-4 AVC Video 11303 kbps 1080p / 24 fps / 16:9 / High Profile 4.1

    FILES:

    Name Time In Length Size Total Bitrate
    ---- ------- ------ ---- -------------
    00003.M2TS 0:00:00.000 0:00:42.500 63,043,584 11,867

    CHAPTERS:

    Number Time In Length Avg Video Rate Max 1-Sec Rate Max 1-Sec Time Max 5-Sec Rate Max 5-Sec Time Max 10Sec Rate Max 10Sec Time Avg Frame Size Max Frame Size Max Frame Time
    ------ ------- ------ -------------- -------------- -------------- -------------- -------------- -------------- -------------- -------------- -------------- --------------
    1 0:00:00.000 0:00:42.500 11,303 kbps 59,011 kbps 00:00:00.458 24,126 kbps 00:00:00.208 16,862 kbps 00:00:00.125 58,869 bytes 949,087 bytes 00:00:16.000

    STREAM DIAGNOSTICS:

    File PID Type Codec Language Seconds Bitrate Bytes Packets
    ---- --- ---- ----- -------- -------------- -------------- ------------- -----
    00003.M2TS 4113 (0x1011) 0x1B AVC 42.375 11,336 60,046,267 326,898

    /code


    QUICK SUMMARY:

    Disc Title: PERIL_DEMEURE
    Disc Size: 30,965,473,343 bytes
    Protection: AACS
    BD-Java: No
    Playlist: 00002.MPLS
    Size: 63,043,584 bytes
    Length: 0:00:42.500
    Total Bitrate: 11.87 Mbps
    Video: MPEG-4 AVC Video / 11303 kbps / 1080p / 24 fps / 16:9 / High Profile 4.1


    ********************
    PLAYLIST: 00003.MPLS
    ********************


    code
    Total Video
    Title Codec Length Movie Size Disc Size Bitrate Bitrate Main Audio Track Secondary Audio Track
    ----- ------ ------- -------------- -------------- ------- ------- ------------------ ---------------------
    00003.MPLS AVC 0:00:40 50,939,904 30,965,473,343 10.19 9.70
    /code

    code

    DISC INFO:

    Disc Title: PERIL_DEMEURE
    Disc Size: 30,965,473,343 bytes
    Protection: AACS
    BD-Java: No
    Extras: 50Hz Content
    BDInfo: 0.5.8

    PLAYLIST REPORT:

    Name: 00003.MPLS
    Length: 0:00:40.000 (h:m:s.ms)
    Size: 50,939,904 bytes
    Total Bitrate: 10.19 Mbps

    VIDEO:

    Codec Bitrate Deion
    ----- ------- -----------
    MPEG-4 AVC Video 9696 kbps 1080p / 24 fps / 16:9 / High Profile 4.1

    FILES:

    Name Time In Length Size Total Bitrate
    ---- ------- ------ ---- -------------
    00004.M2TS 0:00:00.000 0:00:40.000 50,939,904 10,188

    CHAPTERS:

    Number Time In Length Avg Video Rate Max 1-Sec Rate Max 1-Sec Time Max 5-Sec Rate Max 5-Sec Time Max 10Sec Rate Max 10Sec Time Avg Frame Size Max Frame Size Max Frame Time
    ------ ------- ------ -------------- -------------- -------------- -------------- -------------- -------------- -------------- -------------- -------------- --------------
    1 0:00:00.000 0:00:40.000 9,696 kbps 16,609 kbps 00:00:15.958 10,134 kbps 00:00:00.124 10,424 kbps 00:00:14.958 50,499 bytes 949,087 bytes 00:00:16.000

    STREAM DIAGNOSTICS:

    File PID Type Codec Language Seconds Bitrate Bytes Packets
    ---- --- ---- ----- -------- -------------- -------------- ------------- -----
    00004.M2TS 4113 (0x1011) 0x1B AVC 39.875 9,726 48,479,001 263,995

    /code


    QUICK SUMMARY:

    Disc Title: PERIL_DEMEURE
    Disc Size: 30,965,473,343 bytes
    Protection: AACS
    BD-Java: No
    Playlist: 00003.MPLS
    Size: 50,939,904 bytes
    Length: 0:00:40.000
    Total Bitrate: 10.19 Mbps
    Video: MPEG-4 AVC Video / 9696 kbps / 1080p / 24 fps / 16:9 / High Profile 4.1


    ********************
    PLAYLIST: 00001.MPLS
    ********************


    code
    Total Video
    Title Codec Length Movie Size Disc Size Bitrate Bitrate Main Audio Track Secondary Audio Track
    ----- ------ ------- -------------- -------------- ------- ------- ------------------ ---------------------
    00001.MPLS AVC 0:00:24 102,764,544 30,965,473,343 33.61 29.95 DTS-HD Master 5.1 1937Kbps (48kHz/16-bit)
    /code

    code

    DISC INFO:

    Disc Title: PERIL_DEMEURE
    Disc Size: 30,965,473,343 bytes
    Protection: AACS
    BD-Java: No
    Extras: 50Hz Content
    BDInfo: 0.5.8

    PLAYLIST REPORT:

    Name: 00001.MPLS
    Length: 0:00:24.458 (h:m:s.ms)
    Size: 102,764,544 bytes
    Total Bitrate: 33.61 Mbps

    VIDEO:

    Codec Bitrate Deion
    ----- ------- -----------
    MPEG-4 AVC Video 29949 kbps 1080p / 24 fps / 16:9 / High Profile 4.1

    AUDIO:

    Codec Language Bitrate Deion
    ----- -------- ------- -----------
    DTS-HD Master Audio French 1937 kbps 5.1 / 48 kHz / 1937 kbps / 16-bit (DTS Core: 5.1 / 48 kHz / 1509 kbps / 16-bit / DN -12dB)

    FILES:

    Name Time In Length Size Total Bitrate
    ---- ------- ------ ---- -------------
    00002.M2TS 0:00:00.000 0:00:24.458 102,764,544 33,613

    CHAPTERS:

    Number Time In Length Avg Video Rate Max 1-Sec Rate Max 1-Sec Time Max 5-Sec Rate Max 5-Sec Time Max 10Sec Rate Max 10Sec Time Avg Frame Size Max Frame Size Max Frame Time
    ------ ------- ------ -------------- -------------- -------------- -------------- -------------- -------------- -------------- -------------- -------------- --------------
    1 0:00:00.000 0:00:24.458 29,949 kbps 54,434 kbps 00:00:00.000 36,025 kbps 00:00:05.999 35,182 kbps 00:00:06.250 155,983 bytes 773,935 bytes 00:00:02.000

    STREAM DIAGNOSTICS:

    File PID Type Codec Language Seconds Bitrate Bytes Packets
    ---- --- ---- ----- -------- -------------- -------------- ------------- -----
    00002.M2TS 4113 (0x1011) 0x1B AVC 24.375 30,051 91,561,979 497,948
    00002.M2TS 4352 (0x1100) 0x86 DTS-HD MA fra (French) 24.375 1,944 5,923,184 36,438

    /code


    QUICK SUMMARY:

    Disc Title: PERIL_DEMEURE
    Disc Size: 30,965,473,343 bytes
    Protection: AACS
    BD-Java: No
    Playlist: 00001.MPLS
    Size: 102,764,544 bytes
    Length: 0:00:24.458
    Total Bitrate: 33.61 Mbps
    Video: MPEG-4 AVC Video / 29949 kbps / 1080p / 24 fps / 16:9 / High Profile 4.1
    Audio: French / DTS-HD Master Audio / 5.1 / 48 kHz / 1937 kbps / 16-bit (DTS Core: 5.1 / 48 kHz / 1509 kbps / 16-bit / DN -12dB)


    ********************
    PLAYLIST: 00011.MPLS
    ********************


    code
    Total Video
    Title Codec Length Movie Size Disc Size Bitrate Bitrate Main Audio Track Secondary Audio Track
    ----- ------ ------- -------------- -------------- ------- ------- ------------------ ---------------------
    00011.MPLS AVC 0:00:20 76,167,168 30,965,473,343 30.47 29.13
    /code

    code

    DISC INFO:

    Disc Title: PERIL_DEMEURE
    Disc Size: 30,965,473,343 bytes
    Protection: AACS
    BD-Java: No
    Extras: 50Hz Content
    BDInfo: 0.5.8

    PLAYLIST REPORT:

    Name: 00011.MPLS
    Length: 0:00:20.000 (h:m:s.ms)
    Size: 76,167,168 bytes
    Total Bitrate: 30.47 Mbps

    VIDEO:

    Codec Bitrate Deion
    ----- ------- -----------
    MPEG-4 AVC Video 29125 kbps 1080p / 24 fps / 16:9 / High Profile 4.1

    FILES:

    Name Time In Length Size Total Bitrate
    ---- ------- ------ ---- -------------
    00011.M2TS 0:00:00.000 0:00:20.000 76,167,168 30,467

    CHAPTERS:

    Number Time In Length Avg Video Rate Max 1-Sec Rate Max 1-Sec Time Max 5-Sec Rate Max 5-Sec Time Max 10Sec Rate Max 10Sec Time Avg Frame Size Max Frame Size Max Frame Time
    ------ ------- ------ -------------- -------------- -------------- -------------- -------------- -------------- -------------- -------------- -------------- --------------
    1 0:00:00.000 0:00:20.000 29,125 kbps 62,151 kbps 00:00:17.958 34,740 kbps 00:00:03.499 29,623 kbps 00:00:09.708 151,694 bytes 981,431 bytes 00:00:14.000

    STREAM DIAGNOSTICS:

    File PID Type Codec Language Seconds Bitrate Bytes Packets
    ---- --- ---- ----- -------- -------------- -------------- ------------- -----
    00011.M2TS 4113 (0x1011) 0x1B AVC 19.875 29,308 72,813,212 396,013

    /code


    QUICK SUMMARY:

    Disc Title: PERIL_DEMEURE
    Disc Size: 30,965,473,343 bytes
    Protection: AACS
    BD-Java: No
    Playlist: 00011.MPLS
    Size: 76,167,168 bytes
    Length: 0:00:20.000
    Total Bitrate: 30.47 Mbps
    Video: MPEG-4 AVC Video / 29125 kbps / 1080p / 24 fps / 16:9 / High Profile 4.1




    Скриншоты для ознакомления


    Релиз подготовил: Temperest
    Залил: Temperest
    Размер скачиваемого торрента: 24.19 GB (25977197997 Bytes)

    Смерть во французском саду / Pril en la demeure (1985) BDRemux от Temperest скачать через торрент бесплатно
    загрузка...
    Рейтинг →
     (голосов: 1, оценка 3/5, голосовать можно 1 раз )

    Другие торренты по теме:

  • Смерть во французском саду / Pril en la demeure (1985) BDRip 720p от Temperest скачать через торрент бесплатно


    • Комментарии (0):

      Информация

      Информация

        Посетители, находящиеся в группе Гости, не могут оставлять комментарии в данной новости.

        ↓ Меню



        ↓ Опрос

        А Вы добавили сайт в закладки?
        Да
        Не


        Top 10 за месяц (Фильмы)