.
Авторизация | Регистрация
» » Танцуй отсюда! / Cuban Fury (2014) BDRip-AVC | Лицензия торрент скачать бесплатно




    Танцуй отсюда! / Cuban Fury (2014) BDRip-AVC | Лицензия торрент скачать бесплатно

    Опубликовал: Админ | Дата: 27-02-2015, 11:10 | Просмотров: 256



    Детально о кино
    Русское название: Танцуй отсюда!
    Русское название в мировом прокате: Cuban Fury
    Создали в: 2014
    Категория жанра: комедия
    Главный режиссер: Джеймс Гриффитс
    Актеры: Ник Фрост, Рашида Джонс, Крис О’Дауд, Иэн МакШейн, Бен Рэдклифф, Isabella Steinbarth, Брэндон Робинсон, Луис Кайриаку, Киран Гаффни, Стив Орам

    Сюжет фильма: Реальные мужики зажигают
    Кинолента начинает свой рассказ в 1987 году. 13-летний паренек, прирожденный танцор, страстно зажигает в танце, мечтая о том, как он взойдет на пьедестал юношеского чемпионата Великобритании по сальсе. Но неприятный инцидент на улице Лондона лишает мальчишку веры, его жизнь начинает катиться вниз по наклонной.

    22 года спустя взрослый Брюс Гарретт все так же живет в жалости к себе и постоянной депрессии. Его единственная радость в жизни – его умный, забавный, просто великолепный американский босс Джулия. Но она недоступна. Она словно в другой лиге. В представлении героя картины Танцуй отсюда! она – само совершенство. Так бы все и продолжалось, если бы не наглый коллега Брюса по работе, настоящий альфа-самец Дрю, который тоже положил глаз на Джулию. Брюс вынужден действовать. А это значит, что герою комедии Кубинская ярость придется столкнуться лицом к лицу со своим темным, мощным внутренним демоном. Брюс должен вернуть свой танец, вернуть свою давно потерянную страстную натуру, чтобы утвердиться перед любовью всей его жизни. И он собирается это сделать на танцполе.




    Снималось в: Великобритания
    Киностудия: Big Talk Productions
    Время просмотра: 01:37:53
    Перевод текста: Дублированное Лицензия

    Файл
    Кодек для видео: h.264 (MKV)
    Качество фильма: BDRip-AVC
    Информация о видео: AVC, 1024 x 432, ~1810 kbps
    Информация о звуке: Русский / Английский: AC-3, 6 ch, 448 kbps
    Субтитры: Русский

    Семпл

    Скриншоты для ознакомления
    MI
    Общее
    Уникальный идентификатор : 168348648403719580577546155723716462494 (0x7EA6C532C2870C1E037BA147C20E879E)
    Полное имя : F:Танцуй отсюда! Cuban Fury (2014)Cuban.Fury.2014.BDRip-AVC.mkv
    Формат : Matroska
    Версия формата : Version 2
    Размер файла : 1,89 Гбайт
    Продолжительность : 1 ч. 37 м.
    Режим общего битрейта : Переменный
    Общий поток : 2761 Кбит/сек
    Программа кодирования : Lavf51.12.1
    Библиотека кодирования : Lavf51.12.1

    Видео
    Идентификатор : 1
    Формат : AVC
    Формат/Информация : Advanced Video Codec
    Профиль формата : Baseline@L3.1
    Параметр CABAC формата : Нет
    Параметр ReFrames формата : 1 кадр
    Параметр GOP формата : M=1, N=12
    Идентификатор кодека : V_MPEG4/ISO/AVC
    Продолжительность : 1 ч. 37 м.
    Вид битрейта : Переменный
    Битрейт : 1810 Кбит/сек
    Максимальный битрейт : 2790 Кбит/сек
    Ширина : 1024 пикселя
    Высота : 432 пикселя
    Соотношение сторон : 2,40:1
    Режим частоты кадров : Постоянный
    Частота кадров : 23,976 кадра/сек
    Частота кадров в оригинале : 24,000 кадра/сек
    Цветовое пространство : YUV
    Субдискретизация насыщенности : 4:2:0
    Битовая глубина : 8 бит
    Тип развёртки : Прогрессивная
    Бит/(Пиксели*Кадры) : 0.171
    Размер потока : 1,24 Гбайт (66%)
    Язык : English
    Default : Да
    Forced : Нет

    Аудио #1
    Идентификатор : 2
    Формат : AC-3
    Формат/Информация : Audio Coding 3
    Расширение режима : CM (complete main)
    Параметр Endianness формата : Big
    Идентификатор кодека : A_AC3
    Продолжительность : 1 ч. 37 м.
    Вид битрейта : Постоянный
    Битрейт : 448 Кбит/сек
    Каналы : 6 каналов
    Расположение каналов : Front: L C R, Side: L R, LFE
    Частота : 48,0 КГц
    Битовая глубина : 16 бит
    Метод сжатия : С потерями
    Размер потока : 314 Мбайт (16%)
    Язык : Russian
    Default : Да
    Forced : Нет

    Аудио #2
    Идентификатор : 4
    Формат : AC-3
    Формат/Информация : Audio Coding 3
    Расширение режима : CM (complete main)
    Параметр Endianness формата : Big
    Идентификатор кодека : A_AC3
    Продолжительность : 1 ч. 37 м.
    Вид битрейта : Постоянный
    Битрейт : 448 Кбит/сек
    Каналы : 6 каналов
    Расположение каналов : Front: L C R, Side: L R, LFE
    Частота : 48,0 КГц
    Битовая глубина : 16 бит
    Метод сжатия : С потерями
    Размер потока : 314 Мбайт (16%)
    Язык : English
    Default : Да
    Forced : Нет

    Текст
    Идентификатор : 3
    Формат : UTF-8
    Идентификатор кодека : S_TEXT/UTF8
    Идентификатор кодека/Информация : UTF-8 Plain Text
    Язык : Russian
    Default : Да
    Forced : Нет

    Размер скачиваемого торрента: 1.89 GB (2026793059 Bytes)

    Танцуй отсюда! / Cuban Fury (2014) BDRip-AVC | Лицензия торрент скачать бесплатно
    загрузка...
    Рейтинг →
     (голосов: 1, оценка 5/5, голосовать можно 1 раз )

    Другие торренты по теме:

  • Танцуй отсюда (2014) скачать через торрент бесплатно
  • Танцуй отсюда! / Cuban Fury (2014) BDRip 720p от Leonardo and Scarabey | Лицензия торрент скачать бесплатно
  • Танцуй отсюда! / Cuban Fury (2014) BDRip 720p от Leonardo| Лицензия | iPad скачать торрент бесплатно


    • Комментарии (0):

      Информация

      Информация

        Посетители, находящиеся в группе Гости, не могут оставлять комментарии в данной новости.

        ↓ Меню



        ↓ Опрос

        А Вы добавили сайт в закладки?
        Да
        Не


        Top 10 за неделю (Фильмы)