.
Авторизация | Регистрация
Хочешь лучшие торренты? Добавь свой email!
Добавить
» » Ночной убийца / Dead by Midnight (1997) DVDRip | P2 скачать через торрент бесплатно




    Ночной убийца / Dead by Midnight (1997) DVDRip | P2 скачать через торрент бесплатно

    Опубликовал: Админ | Дата: 27-02-2015, 11:10 | Просмотров: 191



    Детально о кино
    Русское название: Ночной убийца
    Русское название в мировом прокате: Dead by Midnight
    Создали в: 1997
    Главный режиссер: Джим МакБрайд / Jim McBride
    Актеры: Тимоти Хаттон, Сьюзи Эмис, Джон Гловер, Макс Райт, Грант Хеслов, Дж. Скотт Бронсон, Лилиана Кэбал, Брэд Гринкуист, Бенджамин Израэли, Джин Дженкинс, Мэтт Макбрайд, Джоуи Миясима, Моава Прайор, Риз Персер, Деннис Сэйлор, Дуэйн Стивенс, Кристи Саммерхэйс, Скотт Уилкинсон, Ивонн Зима

    Сюжет фильма:
    У Джона Ларкина было все: хорошая работа, жена, дети, но в один злосчастный день его жизнь перевернулась. Когда он против собственной воли чуть было не убил свою жену Лайзу, в его дом ворвались вооруженные люди и куда-то его увезли. Джону удалось сбежать, но он не особо-то рад этому - окружающий мир пугающе изменился. В его доме живут посторонние люди. У жены, оказывается, совершенно другое имя - Сара Флинт. Да и сам он является лишь частью сверхсекретного эксперимента. На самом деле зовут его Сэм Эллис, и профессия у него отнюдь не мирная. Джон-Сэм - киллер-профессионал…




    Снималось в: США
    Время просмотра: 01:25:52
    Перевод текста: Профессиональный двухголосый закадровый

    Файл
    Кодек для видео: XviD
    Качество фильма: DVDRip
    Информация о видео: 640x480 (1.33:1), 25 fps, XviD build 50 ~2050 kbps avg, 0.27 bit/pixel
    Информация о звуке: 48 kHz, AC3 Dolby Digital, 2/0 (L,R) ch, ~384.00 kbps avg

    Время Раздачи 11-00 до 16-00 + 20-00 до 03-00

    Скриншоты для ознакомления
    MediaInfo
    downloadDead_by_Midnight_DVDRip.avi
    Формат : AVI
    Формат/Информация : Audio Video Interleave
    Размер файла : 1,47 Гбайт
    Продолжительность : 1 ч. 25 м.
    Общий поток : 2444 Кбит/сек
    Программа кодирования : VirtualDubMod 1.5.10.3 | http://www.virtualdub-fr.org || (build 2550/release)
    Библиотека кодирования : VirtualDubMod build 2550/release

    Видео
    Идентификатор : 0
    Формат : MPEG-4 Visual
    Профиль формата : Advanced Simple@L5
    Параметр BVOP формата : 3
    Параметр QPel формата : Нет
    Параметр GMC формата : Без точки перехода
    Параметр матрицы формата : Default (H.263)
    Идентификатор кодека : XVID
    Идентификатор кодека/Подсказка : XviD
    Продолжительность : 1 ч. 25 м.
    Битрейт : 2050 Кбит/сек
    Ширина : 640 пикселей
    Высота : 480 пикселей
    Соотношение сторон : 4:3
    Частота кадров : 25,000 кадров/сек
    Цветовое пространство : YUV
    Субдискретизация насыщенности : 4:2:0
    Битовая глубина : 8 бит
    Тип развёртки : Прогрессивная
    Метод сжатия : С потерями
    Бит/(Пиксели*Кадры) : 0.267
    Размер потока : 1,23 Гбайт (84%)
    Библиотека кодирования : XviD 1.2.1 (UTC 2008-12-04)

    Аудио
    Идентификатор : 1
    Формат : AC-3
    Формат/Информация : Audio Coding 3
    Расширение режима : CM (complete main)
    Параметр Endianness формата : Big
    Идентификатор кодека : 2000
    Продолжительность : 1 ч. 25 м.
    Вид битрейта : Постоянный
    Битрейт : 384 Кбит/сек
    Каналы : 2 канала
    Расположение каналов : Front: L R
    Частота : 48,0 КГц
    Битовая глубина : 16 бит
    Метод сжатия : С потерями
    Размер потока : 236 Мбайт (16%)
    Выравнивание : Разделение по промежуткам
    Продолжительность промежутка : 40 мс. (1,00 видеокадр)
    Время предзагрузки промежутка : 500 мс.


    Релиз подготовил:
    Залил: grom23
    Размер скачиваемого торрента: 1.47 GB (1574076416 Bytes)

    Ночной убийца / Dead by Midnight (1997) DVDRip | P2 скачать через торрент бесплатно
    загрузка...
    Рейтинг →
     (голосов: 1, оценка 4/5, голосовать можно 1 раз )

    Другие торренты по теме:



      Комментарии (0):

      Информация

      Информация

        Посетители, находящиеся в группе Гости, не могут оставлять комментарии в данной новости.

        ↓ Меню



        ↓ Опрос

        А Вы добавили сайт в закладки?
        Да
        Не


        Top 10 за месяц (Фильмы)