.
Авторизация | Регистрация
Хочешь лучшие торренты? Добавь свой email!
Добавить
» » Отец невесты / Father of the Bride (1991) BDRip 720p by msltel | P, A скачать через торрент бесплатно




    Отец невесты / Father of the Bride (1991) BDRip 720p by msltel | P, A скачать через торрент бесплатно

    Опубликовал: Админ | Дата: 27-02-2015, 11:10 | Просмотров: 162



    Русское название: Отец невесты
    Русское название в мировом прокате: Father of the Bride
    Создали в: 1991
    Категория жанра: Комедия
    Снималось в: США, Sandollar Productions, Touchstone Pictures, Touchwood Pacific Partners 1
    Главный режиссер: Чарльз Шайер
    Актеры: Стив Мартин, Дайан Китон, Кимберли Уильямс, Киран Калкин, Джордж Ньюберн, Мартин Шорт, Б.Д. Вонг, Питер Майкл Гец, Кейт Макгрегор-Стюарт, Кармен Хейуорд, Эйприл Ортиз, Мина Васкес, Гибби Брэнд, Ричард Портноу, Барбара Перри, Марта Геман, Фрэнк Копик, Дэвид Паскуэзи, Айра Хейден, Томас Вагнер, Марисса Лефтон

    Сюжет фильма: Для дочери предстоящая свадьба — самое торжественное и волнующее событие в жизни. Для её любящего отца — сумасшедший дом. Во-первых, он расстаётся со своим обожаемым ребёнком, во-вторых, с немалой суммой денег, в-третьих, ему приходится терпеть родственников со стороны жениха. От этого можно просто потерять рассудок. На свадьбе все счастливы… кроме отца невесты.

    Качество фильма: BDRip 720p
    Размер скачиваемого торрента: 8.35 ГБ
    Время просмотра: 01:45:13

    Информация о видео: MPEG-4 AVC, 5761 Kбит/с, 1280x690
    Информация о звуке 1: русский, 48 kHz, AC3, 6 ch, 448 kbps avg, Профессиональный многоголосый, Видеосервис
    Информация о звуке 2: русский, 48 kHz, AC3, 2 ch, 192 kbps avg, Профессиональный многоголосый, Первый канал
    Информация о звуке 3: русский, 48 kHz, AC3, 2 ch, 192 kbps avg, Профессиональный многоголосый, HTB+
    Информация о звуке 4: русский, 48 kHz, AC3, 2 ch, 192 kbps avg, Авторский, Александр Кашкин
    Информация о звуке 5: русский, 48 kHz, AC3, 6 ch, 448 kbps avg, Авторский, Алексей Михалёв
    Информация о звуке 6: русский, 48 kHz, AC3, 2 ch, 192 kbps avg, Авторский, Павел Санаев

    Внешние файлы
    Информация о звуке: русский, 48 kHz, DTS, 6 ch, 1509 kbps avg, Профессиональный многоголосый, Видеосервис
    Информация о звуке: русский, 48 kHz, DTS, 6 ch, 1509 kbps avg, Авторский, Алексей Михалёв
    Информация о звуке: английский, 48 kHz, AC3, 6 ch, 448 kbps avg, Оригинал
    Информация о звуке: английский, 48 kHz, AC3, 2 ch, 320 kbps avg, комментарий
    Субтитры: русские
    Субтитры: английские

    Исходник: igorella87 (Кинозал)

    Сравнение с исходником



    Награды
    Премия канала MTV, 1992 год
    Номинации (2):
    Прорыв года (Кимберли Уильямс-Пэйсли)
    Лучшая комедийная роль (Стив Мартин)
    MediaInfo + Лог х264
    Общее
    Полное имя : D:VideoOtec nevesty.1991.BDRip.720pOtec nevesty.1991.AVO.rus.А.Михалёв.dts
    Формат : DTS
    Формат/Информация : Digital Theater Systems
    Размер файла : 1,11 Гбайт
    Продолжительность : 1 ч. 45 м.
    Режим общего битрейта : Постоянный
    Общий поток : 1509 Кбит/сек

    Аудио
    Формат : DTS
    Формат/Информация : Digital Theater Systems
    Режим : 16
    Параметр Endianness формата : Big
    Продолжительность : 1 ч. 45 м.
    Вид битрейта : Постоянный
    Битрейт : 1509 Кбит/сек
    Каналы : 6 каналов
    Расположение каналов : Front: L C R, Side: L R, LFE
    Частота : 48,0 КГц
    Битовая глубина : 24 бит
    Метод сжатия : С потерями
    Размер потока : 1,11 Гбайт (100%)

    Общее
    Уникальный идентификатор : 200385185381915443255756835605822762808 (0x96C0C86BBB6CD2BF8729F12334EAEF38)
    Полное имя : D:VideoOtec nevesty.1991.BDRip.720pOtec nevesty.1991.BDRip.720p.mkv
    Формат : Matroska
    Версия формата : Version 4 / Version 2
    Размер файла : 5,57 Гбайт
    Продолжительность : 1 ч. 45 м.
    Общий поток : 7576 Кбит/сек
    Дата кодирования : UTC 2014-06-17 14:10:09
    Программа кодирования : mkvmerge v6.9.1 (;Blue Panther;) 64bit built on Apr 18 2014 18:23:38
    Библиотека кодирования : libebml v1.3.0 + libmatroska v1.4.1

    Видео
    Идентификатор : 1
    Формат : AVC
    Формат/Информация : Advanced Video Codec
    Профиль формата : High@L4.1
    Параметр CABAC формата : Да
    Параметр ReFrames формата : 9 кадров
    Идентификатор кодека : V_MPEG4/ISO/AVC
    Продолжительность : 1 ч. 45 м.
    Битрейт : 5761 Кбит/сек
    Ширина : 1280 пикселей
    Высота : 690 пикселей
    Соотношение сторон : 1,85:1
    Режим частоты кадров : Постоянный
    Частота кадров : 23,976 кадра/сек
    Цветовое пространство : YUV
    Субдискретизация насыщенности : 4:2:0
    Битовая глубина : 8 бит
    Тип развёртки : Прогрессивная
    Бит/(Пиксели*Кадры) : 0.272
    Размер потока : 4,23 Гбайт (76%)
    Заголовок : BDRip -- STarankov
    Библиотека кодирования : x264 core 138 r2358 9e941d1
    Залил: msltel
    Размер скачиваемого торрента: 8.35 GB (8967020531 Bytes)


    Отец невесты / Father of the Bride (1991) BDRip 720p by msltel | P, A скачать через торрент бесплатно
    загрузка...
    Рейтинг →
     (голосов: 1, оценка 3/5, голосовать можно 1 раз )

    Другие торренты по теме:



      Комментарии (0):

      Информация

      Информация

        Посетители, находящиеся в группе Гости, не могут оставлять комментарии в данной новости.

        ↓ Меню



        ↓ Опрос

        А Вы добавили сайт в закладки?
        Да
        Не


        Top 10 за месяц (Фильмы)