.
Авторизация | Регистрация
» » Камера / The Chamber (1996) WEB-DLRip от Leon-masl | P2 торрент скачать бесплатно




    Камера / The Chamber (1996) WEB-DLRip от Leon-masl | P2 торрент скачать бесплатно

    Опубликовал: Админ | Дата: 27-02-2015, 11:10 | Просмотров: 237



    Детально о кино
    Русское название: Камера
    Русское название в мировом прокате: The Chamber
    Создали в: 1996
    Категория жанра: Триллер, Драма
    Главный режиссер: Джеймс Фоули / James Foley
    Актеры: Крис О’Доннелл, Джин Хэкмен, Фэй Данауэй, Роберт Проски, Рэймонд Дж. Бэрри, Бо Джексон, Лила Рошон, Дэвид Маршалл Грант, Николас Прайор, Харви Преснелл

    Сюжет фильма:
    В апреле 1967 года в одном из южных штатов расисты взорвали контору еврея. Погибли двое детей. Затем действие переносится в Чикаго 1996 года. Молодой адвокат должен защищать человека, виновного в этом преступлении. Его ждет смертный приговор…

    По роману Джона Гришема




    Снималось в: США
    Киностудия: Universal Pictures
    Время просмотра: 01:52:31
    Перевод текста: Профессиональный (двухголосый закадровый)

    Файл
    Кодек для видео: XviD
    Качество фильма: WEB-DLRip
    Информация о видео: 720x304, 23,976 fps, 1659 kbps
    Информация о звуке: 48.0 KHz, AC3 Dolby Digital, 2/0 (L,R) ch, 192 kbps
    MI
    Общее
    Полное имя : The.Chamber.1996.WEB-DLRip.avi
    Формат : AVI
    Формат/Информация : Audio Video Interleave
    Размер файла : 1,46 Гбайт
    Продолжительность : 1 ч. 52 м.
    Общий поток : 1860 Кбит/сек
    Программа кодирования : VirtualDubMod 1.5.10.3 | www.virtualdub-fr.org || (build 2550/release)
    Библиотека кодирования : VirtualDubMod build 2550/release

    Видео
    Идентификатор : 0
    Формат : MPEG-4 Visual
    Профиль формата : Advanced Simple@L5
    Параметр BVOP формата : 1
    Параметр QPel формата : Нет
    Параметр GMC формата : Без точки перехода
    Параметр матрицы формата : Выборочная
    Идентификатор кодека : XVID
    Идентификатор кодека/Подсказка : XviD
    Продолжительность : 1 ч. 52 м.
    Битрейт : 1659 Кбит/сек
    Ширина : 720 пикс.
    Высота : 304 пикс.
    Соотношение сторон : 2,35:1
    Частота кадров : 23,976 кадр/сек
    Цветовое пространство : YUV
    Подвыборка цветности : 4:2:0
    Битовая глубина : 8 бит
    Тип развёртки : Прогрессивная
    Метод сжатия : С потерями
    Бит/(Пиксели*Кадры) : 0.316
    Размер потока : 1,30 Гбайт (89%)
    Библиотека кодирования : XviD 73

    Аудио
    Идентификатор : 1
    Формат : AC-3
    Формат/Информация : Audio Coding 3
    Расширение режима : CM (complete main)
    Идентификатор кодека : 2000
    Продолжительность : 1 ч. 52 м.
    Вид битрейта : Постоянный
    Битрейт : 192 Кбит/сек
    Канал(ы) : 2 канала(ов)
    Расположение каналов : Front: L R
    Частота : 48,0 КГц
    Битовая глубина : 16 бит
    Метод сжатия : С потерями
    Размер потока : 154 Мбайт (10%)
    Выравнивание : Разделение по промежуткам
    Продолжительность промежутка : 42 мс. (1,00 видеокадр)
    Время предзагрузки промежутка : 500 ms
    Скриншоты для ознакомления


    Релиз подготовил: Leon-masl
    Залил: leon-masl
    Размер скачиваемого торрента: 1.46 GB (1569804288 Bytes)

    Камера / The Chamber (1996) WEB-DLRip от Leon-masl | P2 торрент скачать бесплатно
    загрузка...
    Рейтинг →
     (голосов: 1, оценка 5/5, голосовать можно 1 раз )

    Другие торренты по теме:

  • Камера 211 / Celda 211 (2009) BDRip 1080p от FREEISLAND торрент скачать бесплатно
  • Камера Пыток / Кровавый барон / Baron Blood / Gli orrori del castello di Norimberga (1972) BDRip торрент скачать бесплатно
  • Чудо в камере №7 / Miracle in Cell No.7 (2012) HDTVRip | L2 торрент скачать бесплатно
  • Чудо в камере №7 / Miracle in Cell No.7 / Number 7 Rooms Gift / 7 Beonbangui Seonmool (2012) HDRip от BTT-TEAM торрент скачать бесплатно
  • Женщины в камере 9 / Frauen fr Zellenblock 9 (1978) DVDRip торрент скачать бесплатно
  • Экранная Камера 2.0 (2014) | Repack by kaktusTV торрент скачать бесплатно
  • Школа монстров: Страх! Камера! Мотор! / Monster High: Frights, Camera, Action! (2014) HDRip торрент скачать бесплатно
  • Школа монстров: Страх! Камера! Мотор! / Monster High: Frights, Camera, Action! (2014) BDRip от Deadmauvlad | Лицензия скачать через торрент бесплатно


    • Комментарии (0):

      Информация

      Информация

        Посетители, находящиеся в группе Гости, не могут оставлять комментарии в данной новости.

        ↓ Меню



        ↓ Опрос

        А Вы добавили сайт в закладки?
        Да
        Не


        Top 10 за неделю (Фильмы)