.
Авторизация | Регистрация
Хочешь лучшие торренты? Добавь свой email!
Добавить
» » Кровь и кость / Blood and Bone (2009) BDRip by msltel | A, L2 торрент скачать бесплатно




    Кровь и кость / Blood and Bone (2009) BDRip by msltel | A, L2 торрент скачать бесплатно

    Опубликовал: Админ | Дата: 27-02-2015, 11:10 | Просмотров: 216



    Русское название: Кровь и кость
    Русское название в мировом прокате: Blood and Bone
    Создали в: 2009
    Категория жанра: Боевик, драма
    Снималось в: США, Remarkable Films
    Главный режиссер: Бен Рэмси
    Актеры: Майкл Джей Уайт, Джулиан Сэндс, Имонн Уолкер, Данте Баско, Нона Гей, Боб Сапп, Дик, Энтони, Уильямс Рон Йуан

    Сюжет фильма: После выхода на волю бывший заключённый Исай Бон (Майкл Джей Уайт) по кличке Кость снимает себе комнату и начинает участвовать в уличных драках в глухих переулках Лос-Анджелеса, чтобы выполнить обещание, данное другу, убитому в тюрьме. Он быстро становится чемпионом в нелегальных боях и бросает вызов местному гангстеру Джеймсу, который намерен использовать Исая в своих целях...

    Качество фильма: BDRip
    Информация о видео: XviD, 1909 Кбит/с, 720x400
    Информация о звуке: Русский, английский (AC3, 6 ch, 448 Кбит/с)
    Размер скачиваемого торрента: 2.13 ГБ
    Время просмотра: 01:33:26
    Перевод текста: Авторский (Андрей Дольский), любительский двухголосый
    Субтитры: Английские

    Исходник: STARBIT (Кинозал)

    Сравнение с исходником


    /url

    MediaInfo
    Общее
    Полное имя : D:VideoKrov; i kost;.2009.BDRipKrov; i kost;.2009.BDRip.avi
    Формат : AVI
    Формат/Информация : Audio Video Interleave
    Размер файла : 1,84 Гбайт
    Продолжительность : 1 ч. 33 м.
    Общий поток : 2819 Кбит/сек
    Программа кодирования : VirtualDubMod 1.5.10.2 (build 2540/release)
    Библиотека кодирования : VirtualDubMod build 2540/release

    Видео
    Идентификатор : 0
    Формат : MPEG-4 Visual
    Профиль формата : Advanced Simple@L5
    Параметр BVOP формата : 1
    Параметр QPel формата : Нет
    Параметр GMC формата : Без точки перехода
    Параметр матрицы формата : Default (H.263)
    Режим смешивания : Сжатый битовый поток
    Идентификатор кодека : XVID
    Идентификатор кодека/Подсказка : XviD
    Продолжительность : 1 ч. 33 м.
    Битрейт : 1909 Кбит/сек
    Ширина : 720 пикселей
    Высота : 400 пикселей
    Соотношение сторон : 16:9
    Частота кадров : 23,976 кадра/сек
    Цветовое пространство : YUV
    Субдискретизация насыщенности : 4:2:0
    Битовая глубина : 8 бит
    Тип развёртки : Прогрессивная
    Метод сжатия : С потерями
    Бит/(Пиксели*Кадры) : 0.276
    Размер потока : 1,25 Гбайт (68%)
    Библиотека кодирования : XviD 1.2.1 (UTC 2008-12-04)

    Аудио #1
    Идентификатор : 1
    Формат : AC-3
    Формат/Информация : Audio Coding 3
    Расширение режима : CM (complete main)
    Параметр Endianness формата : Big
    Идентификатор кодека : 2000
    Продолжительность : 1 ч. 33 м.
    Вид битрейта : Постоянный
    Битрейт : 448 Кбит/сек
    Каналы : 6 каналов
    Расположение каналов : Front: L C R, Side: L R, LFE
    Частота : 48,0 КГц
    Битовая глубина : 16 бит
    Метод сжатия : С потерями
    Размер потока : 299 Мбайт (16%)
    Выравнивание : Разделение по промежуткам
    Продолжительность промежутка : 42 мс. (1,00 видеокадр)
    Время предзагрузки промежутка : 500 мс.

    Аудио #2
    Идентификатор : 2
    Формат : AC-3
    Формат/Информация : Audio Coding 3
    Расширение режима : CM (complete main)
    Параметр Endianness формата : Big
    Идентификатор кодека : 2000
    Продолжительность : 1 ч. 33 м.
    Вид битрейта : Постоянный
    Битрейт : 448 Кбит/сек
    Каналы : 6 каналов
    Расположение каналов : Front: L C R, Side: L R, LFE
    Частота : 48,0 КГц
    Битовая глубина : 16 бит
    Метод сжатия : С потерями
    Размер потока : 299 Мбайт (16%)
    Выравнивание : Разделение по промежуткам
    Продолжительность промежутка : 42 мс. (1,00 видеокадр)
    Время предзагрузки промежутка : 500 мс.

    Общее
    Полное имя : D:VideoKrov; i kost;.2009.BDRipKrov; i kost;.2009.eng.srt
    Формат : SubRip
    Размер файла : 72,3 Кбайт

    Текст
    Формат : SubRip
    Метод сжатия : Без потерь

    Общее
    Полное имя : D:VideoKrov; i kost;.2009.BDRipKrov; i kost;.2009.Original.eng.ac3
    Формат : AC-3
    Формат/Информация : Audio Coding 3
    Размер файла : 299 Мбайт
    Продолжительность : 1 ч. 33 м.
    Режим общего битрейта : Постоянный
    Общий поток : 448 Кбит/сек

    Аудио
    Формат : AC-3
    Формат/Информация : Audio Coding 3
    Расширение режима : CM (complete main)
    Параметр Endianness формата : Big
    Продолжительность : 1 ч. 33 м.
    Вид битрейта : Постоянный
    Битрейт : 448 Кбит/сек
    Каналы : 6 каналов
    Расположение каналов : Front: L C R, Side: L R, LFE
    Частота : 48,0 КГц
    Битовая глубина : 16 бит
    Метод сжатия : С потерями
    Размер потока : 299 Мбайт (100%)
    Скриншоты для ознакомления


    Залил: msltel
    Размер скачиваемого торрента: 2.13 GB (2289311509 Bytes)

    Кровь и кость / Blood and Bone (2009) BDRip by msltel | A, L2 торрент скачать бесплатно
    загрузка...
    Рейтинг →
     (голосов: 1, оценка 5/5, голосовать можно 1 раз )

    Другие торренты по теме:

  • Звёздный крейсер Галактика: Кровь и Хром / Battlestar Galactica: Blood and Chrome (2012) WEBRip-Proper | BaibaKo
  • Outlaw Heroes Standing - Against The Wall За Кровь И Нефть (2009-2010) MP3
  • Звездный Крейсер Галактика: Кровь и Хром / Battlestar Galactica: Blood Chrome (2012) HDRip-AVC
  • OST - Спартак: Кровь и песок / Spartacus: Blood and Sand Season (2010-2012) MP3
  • Титаник: Кровь и сталь / Titanic: Blood and Steel (2012) BDRip | BaibaKo
  • Кровь и кости / Chi to hone (2004) DVDRip
  • OST - Звездный крейсер Галактика: Кровь и хром / Battlestar Galactica: Blood Chrome (2013) MP3
  • Спартак: Кровь и песок / Spartacus: Blood and Sand (2010) BDRip | КПК


    • Комментарии (0):

      Информация

      Информация

        Посетители, находящиеся в группе Гости, не могут оставлять комментарии в данной новости.

        ↓ Меню



        ↓ Опрос

        А Вы добавили сайт в закладки?
        Да
        Не


        Top 10 за месяц (Фильмы)