.
Авторизация | Регистрация
Хочешь лучшие торренты? Добавь свой email!
Добавить
» » Пальметто / Palmetto (1998) DVDRip от Leon-masl | A, D, P торрент скачать бесплатно




    Пальметто / Palmetto (1998) DVDRip от Leon-masl | A, D, P торрент скачать бесплатно

    Опубликовал: Админ | Дата: 27-02-2015, 11:10 | Просмотров: 292



    Детально о кино
    Русское название: Пальметто
    Русское название в мировом прокате: Palmetto
    Создали в: 1998
    Категория жанра: триллер, криминал, детектив
    Главный режиссер: Фолькер Шлендорфф /Volker Schlondorff/
    Актеры: Вуди Харрелсон /Woody Harrelson/, Элизабет Шу /Elizabeth Shue/, Том Райт /Tom Wright/, Джина Гершон /Gina Gershon/, Хлои Севиньи /Chloe Sevigny/, Майкл Рапапорт /Michael Rapaport/, Ролф Хоппе /Rolf Hoppe/

    Сюжет фильма:
    Гарри Барберу предложили быстро и хорошо заработать. Чтобы выманить деньги у старого и больного миллионера, его жена и дочь от другого брака решили инсценировать похищение последней и потребовать выкуп. Им нужен кто-то, кто бы позвонил старику, объявил сумму выкупа, а потом забрал бы деньги. Именно на эту роль и пригласили Гарри.
    Гарри, до этого ни за что отсидевший два года в тюрьме, неохотно, но согласился. Возможно, он сделал тем самым серьезную ошибку…

    Экранизация романа Джеймса Хэдли Чэйза.



    Снималось в: США
    Время просмотра: 01:53:25
    Перевод текста: Авторский (одноголосый) - Ю.Живов. Профессиональный (полное дублирование) - ВАРУС-Видео, Профессиональный (многоголосый, закадровый)

    Файл
    Кодек для видео: XviD
    Качество фильма: DVDRip
    Информация о видео: 720x336 , 23.976 fps, ~1966 kbps
    Информация о звуке 1: 48 kHz, AC3 Dolby Digital, 3/2 (L,C,R,l,r) + LFE ch, ~384.00 kbps
    Информация о звуке 2: 48 kHz, AC3 Dolby Digital, 2/0 (L,R) ch, ~192.00 kbps
    Информация о звуке 3: 48 kHz, AC3 Dolby Digital, 2/0 (L,R) ch, ~192.00 kbps
    MI
    Общее
    Полное имя : Palmetto.1998.DVDRip.avi
    Формат : AVI
    Формат/Информация : Audio Video Interleave
    Профиль формата : OpenDML
    Размер файла : 2,18 Гбайт
    Продолжительность : 1 ч. 53 м.
    Общий поток : 2758 Кбит/сек
    Программа кодирования : VirtualDubMod 1.5.10.2 (build 2542/release)
    Библиотека кодирования : VirtualDubMod build 2542/release

    Видео
    Идентификатор : 0
    Формат : MPEG-4 Visual
    Профиль формата : Advanced Simple@L5
    Параметр BVOP формата : 1
    Параметр QPel формата : Нет
    Параметр GMC формата : Без точки перехода
    Параметр матрицы формата : Выборочная
    Идентификатор кодека : XVID
    Идентификатор кодека/Подсказка : XviD
    Продолжительность : 1 ч. 53 м.
    Битрейт : 1966 Кбит/сек
    Ширина : 720 пикс.
    Высота : 336 пикс.
    Соотношение сторон : 2,2:1
    Частота кадров : 23,976 кадр/сек
    Цветовое пространство : YUV
    Подвыборка цветности : 4:2:0
    Битовая глубина : 8 бит
    Тип развёртки : Прогрессивная
    Метод сжатия : С потерями
    Бит/(Пиксели*Кадры) : 0.339
    Размер потока : 1,56 Гбайт (71%)
    Библиотека кодирования : XviD 73

    Аудио #1
    Идентификатор : 1
    Формат : AC-3
    Формат/Информация : Audio Coding 3
    Расширение режима : CM (complete main)
    Идентификатор кодека : 2000
    Продолжительность : 1 ч. 53 м.
    Вид битрейта : Постоянный
    Битрейт : 384 Кбит/сек
    Канал(ы) : 6 канала(ов)
    Расположение каналов : Front: L C R, Side: L R, LFE
    Частота : 48,0 КГц
    Битовая глубина : 16 бит
    Метод сжатия : С потерями
    Размер потока : 312 Мбайт (14%)
    Выравнивание : Разделение по промежуткам
    Продолжительность промежутка : 42 мс. (1,00 видеокадр)
    Время предзагрузки промежутка : 500 ms

    Аудио #2
    Идентификатор : 2
    Формат : AC-3
    Формат/Информация : Audio Coding 3
    Расширение режима : CM (complete main)
    Идентификатор кодека : 2000
    Продолжительность : 1 ч. 53 м.
    Вид битрейта : Постоянный
    Битрейт : 192 Кбит/сек
    Канал(ы) : 2 канала(ов)
    Расположение каналов : Front: L R
    Частота : 48,0 КГц
    Битовая глубина : 16 бит
    Метод сжатия : С потерями
    Размер потока : 156 Мбайт (7%)
    Выравнивание : Разделение по промежуткам
    Продолжительность промежутка : 42 мс. (1,00 видеокадр)
    Время предзагрузки промежутка : 500 ms

    Аудио #3
    Идентификатор : 3
    Формат : AC-3
    Формат/Информация : Audio Coding 3
    Расширение режима : CM (complete main)
    Идентификатор кодека : 2000
    Продолжительность : 1 ч. 53 м.
    Вид битрейта : Постоянный
    Битрейт : 192 Кбит/сек
    Канал(ы) : 2 канала(ов)
    Расположение каналов : Front: L R
    Частота : 48,0 КГц
    Битовая глубина : 16 бит
    Метод сжатия : С потерями
    Размер потока : 156 Мбайт (7%)
    Выравнивание : Разделение по промежуткам
    Продолжительность промежутка : 42 мс. (1,00 видеокадр)
    Время предзагрузки промежутка : 500 ms
    Скриншоты для ознакомления


    Релиз подготовил: Leon-masl
    Залил: leon-masl
    Размер скачиваемого торрента: 2.18 GB (2346020864 Bytes)

    Пальметто / Palmetto (1998) DVDRip от Leon-masl | A, D, P торрент скачать бесплатно
    загрузка...
    Рейтинг →
     (голосов: 1, оценка 3/5, голосовать можно 1 раз )

    Другие торренты по теме:



      Комментарии (0):

      Информация

      Информация

        Посетители, находящиеся в группе Гости, не могут оставлять комментарии в данной новости.

        ↓ Меню



        ↓ Опрос

        А Вы добавили сайт в закладки?
        Да
        Не


        Top 10 за месяц (Фильмы)