.
Авторизация | Регистрация
Хочешь лучшие торренты? Добавь свой email!
Добавить
» » Два сапога пара / On the Double (1961) DVDRip скачать через торрент бесплатно




    Два сапога пара / On the Double (1961) DVDRip скачать через торрент бесплатно

    Опубликовал: Админ | Дата: 27-02-2015, 11:10 | Просмотров: 229



    Русское название: Два сапога пара
    Русское название в мировом прокате: On the Double
    Создали в: 1961
    Категория жанра: Комедия, приключения, военный
    Главный режиссер: Мелвилл Шэвелсон
    Актеры: Дэнни Кэй, Дана Уинтер, Уилфрид Хайд-Уайт, Маргарет Разерфорд, Диана Дорс, Аллан Катбертсон, Джесси Уайт, Грегори Уэлкотт, Теренс Марни, Рекс Эванс

    Сюжет: Рядовой американской армии Эрни Вильямс, неудачно пошутил. Он перед друзьями показал пародию на полковника британской армии. За такие шутки бедняга Эрни едва не угодил под трибунал. Но офицеры военной разведки заметили, что Эрни и впрямь поразительно похож на известного британского полковника, которого недавно пыталась ликвидировать немецкая агентура. Под страхом трибунала, Эрни заставляют играть роль полковника, отвлекая на него вражескую агентуру.

    Снималось в: США, Dena Productions, Paramount Pictures
    Время просмотра: 01:32:10
    Перевод текста: Авторский одноголосый (Алексеев)

    Качество фильма: DVDRip
    Информация о видео: XviD, 1736 Кбит/с, 704x304
    Информация о звуке#1: Русский (AC3, 2 ch, 192 Кбит/с)
    Информация о звуке#2: Английский (AC3, 1 ch, 192 Кбит/с)

    Инфо
    Полное имя : E:Dva.sapoga.para.1961.tahiy.avi
    Формат : AVI
    Формат/Информация : Audio Video Interleave
    Размер файла : 1,37 Гбайт
    Продолжительность : 1 ч. 32 м.
    Общий поток : 2134 Кбит/сек
    Название фильма : Dva.sapoga.para.1961.tahiy
    Программа кодирования : VirtualDubMod 1.5.10.3 | www.virtualdub-fr.org || (build 2550/release)

    Видео
    Идентификатор : 0
    Формат : MPEG-4 Visual
    Профиль формата : Advanced Simple@L5
    Параметр BVOP формата : 1
    Параметр QPel формата : Нет
    Параметр GMC формата : Без точки перехода
    Параметр матрицы формата : Default (MPEG)
    Идентификатор кодека : XVID
    Идентификатор кодека/Подсказка : XviD
    Продолжительность : 1 ч. 32 м.
    Битрейт : 1736 Кбит/сек
    Ширина : 704 пикселя
    Высота : 304 пикселя
    Соотношение сторон : 2,35:1
    Частота кадров : 23,976 кадра/сек
    Цветовое пространство : YUV
    Субдискретизация насыщенности : 4:2:0
    Битовая глубина : 8 бит
    Тип развёртки : Прогрессивная
    Метод сжатия : С потерями
    Бит/(Пиксели*Кадры) : 0.338
    Размер потока : 1,12 Гбайт (81%)
    Библиотека кодирования : XviD 1.2.1 (UTC 2008-12-04)

    Аудио #1
    Идентификатор : 1
    Формат : AC-3
    Формат/Информация : Audio Coding 3
    Расширение режима : CM (complete main)
    Параметр Endianness формата : Big
    Идентификатор кодека : 2000
    Продолжительность : 1 ч. 32 м.
    Вид битрейта : Постоянный
    Битрейт : 192 Кбит/сек
    Каналы : 2 канала
    Расположение каналов : Front: L R
    Частота : 48,0 КГц
    Битовая глубина : 16 бит
    Метод сжатия : С потерями
    Размер потока : 127 Мбайт (9%)
    Выравнивание : Разделение по промежуткам
    Продолжительность промежутка : 42 мс. (1,00 видеокадр)
    Время предзагрузки промежутка : 500 мс.

    Аудио #2
    Идентификатор : 2
    Формат : AC-3
    Формат/Информация : Audio Coding 3
    Расширение режима : CM (complete main)
    Параметр Endianness формата : Big
    Идентификатор кодека : 2000
    Продолжительность : 1 ч. 32 м.
    Вид битрейта : Постоянный
    Битрейт : 192 Кбит/сек
    Каналы : 1 канал
    Расположение каналов : Front: C
    Частота : 48,0 КГц
    Битовая глубина : 16 бит
    Метод сжатия : С потерями
    Размер потока : 127 Мбайт (9%)
    Выравнивание : Разделение по промежуткам
    Продолжительность промежутка : 42 мс. (1,00 видеокадр)
    Время предзагрузки промежутка : 500 мс.




    Размер скачиваемого торрента: 1.37 GB (1475364864 Bytes)

    Два сапога пара / On the Double (1961) DVDRip скачать через торрент бесплатно
    загрузка...
    Рейтинг →
     (голосов: 1, оценка 5/5, голосовать можно 1 раз )

    Другие торренты по теме:

  • Два парня / Два друга / Two Guys / Tu gaijeu (2004) DVDRip | L1
  • Два отца и два сына (2013) WEBRip-AVC
  • Два отца два сына (2013) SATRip
  • Два отца и два сына (2013) SATRip
  • Два отца и два сына (2013) WEB-DLRip от HitWay скачать через торрент бесплатно
  • Два отца и два сына (2013) DVDRip-AVC от New-Team | лицензия скачать через торрент бесплатно
  • Два отца и два сына (2013) 2xDVD9 R5 от New-Team | лицензия скачать через торрент бесплатно
  • Два отца и два сына (2013) DVDRip от New-Team | лицензия скачать через торрент бесплатно


    • Комментарии (0):

      Информация

      Информация

        Посетители, находящиеся в группе Гости, не могут оставлять комментарии в данной новости.

        ↓ Меню



        ↓ Опрос

        А Вы добавили сайт в закладки?
        Да
        Не


        Top 10 за месяц (Фильмы)