.
Авторизация | Регистрация
Хочешь лучшие торренты? Добавь свой email!
Добавить
» » Семейный консультант / Temptation: Confessions of a Marriage Counselor (2013) BDRemux 1080p от NovaLan скачать через торрент бесплатно




    Семейный консультант / Temptation: Confessions of a Marriage Counselor (2013) BDRemux 1080p от NovaLan скачать через торрент бесплатно

    Опубликовал: Админ | Дата: 27-02-2015, 11:10 | Просмотров: 158



    Русское название: Семейный консультант
    Русское название в мировом прокате: Temptation: Confessions of a Marriage Counselor
    Создали в: 2013
    Категория жанра: Драма
    Главный режиссер: Тайлер Перри
    Актеры: Джерни Смоллетт, Шэрон Олифант, Кимберли Кардашьян, Ванесса Уильямс, Робби Джонс, Брэнди Норвуд, Лэнс Гросс, Рене Тейлор, Элла Джойс, Джим Адамс
    Сюжет фильма:
    Жизнь женщины-брачного консультанта запутывается после того, как она начинает неудержимо развивающиеся отношения за спиной своего мужа.


    Снималось в: США, Lionsgate
    Время просмотра: 01:51:15
    Перевод текста: Любительский одноголосый (PashaUP)

    Кодек для видео: H.264
    Качество фильма: Blu-Ray Remux 1080p
    Информация о видео: MPEG-4 AVC, 17990 Кбит/с, 1920х1080, 23.976 кадр/с
    Информация о звуке: Русский (AC3, 2 ch, 192 Кбит/с), английский (DTS-HD MA, 6 ch, 3457 Кбит/с)
    Субтитры: Русские, английские

    Инфо-файл

    Полное имя : E:Раздачи_ETemptation.Confessions.of.a.Marriage.Counselor.2013.BDRemux.1080p.NovaLan.mkv
    Формат : Matroska
    Версия формата : Version 4 / Version 2
    Размер файла : 16,8 Гбайт
    Продолжительность : 1 ч. 51 м.
    Режим общего битрейта : Переменный
    Общий поток : 21,6 Мбит/сек
    Название фильма : Temptation: Confessions of a Marriage Counselor 2013 - NovaLan
    Дата кодирования : UTC 2014-06-28 14:10:02
    Программа кодирования : mkvmerge v6.9.1 (;Blue Panther;) 64bit built on Apr 18 2014 18:23:38
    Библиотека кодирования : libebml v1.3.0 + libmatroska v1.4.1

    Видео
    Идентификатор : 1
    Формат : AVC
    Формат/Информация : Advanced Video Codec
    Профиль формата : High@L4.1
    Параметр CABAC формата : Да
    Параметр ReFrames формата : 4 кадра
    Идентификатор кодека : V_MPEG4/ISO/AVC
    Продолжительность : 1 ч. 51 м.
    Вид битрейта : Переменный
    Битрейт : 19,4 Мбит/сек
    Максимальный битрейт : 37,0 Мбит/сек
    Ширина : 1920 пикселей
    Высота : 1080 пикселей
    Соотношение сторон : 16:9
    Частота кадров : 23,976 кадра/сек
    Цветовое пространство : YUV
    Субдискретизация насыщенности : 4:2:0
    Битовая глубина : 8 бит
    Тип развёртки : Прогрессивная
    Бит/(Пиксели*Кадры) : 0.390
    Размер потока : 15,1 Гбайт (90%)
    Заголовок : Temptation: Confessions of a Marriage Counselor 2013 - NovaLan
    Default : Да
    Forced : Нет

    Аудио #1
    Идентификатор : 2
    Формат : AC-3
    Формат/Информация : Audio Coding 3
    Расширение режима : CM (complete main)
    Параметр Endianness формата : Big
    Идентификатор кодека : A_AC3
    Продолжительность : 1 ч. 51 м.
    Вид битрейта : Постоянный
    Битрейт : 192 Кбит/сек
    Каналы : 2 канала
    Расположение каналов : Front: L R
    Частота : 48,0 КГц
    Битовая глубина : 16 бит
    Метод сжатия : С потерями
    Размер потока : 153 Мбайт (1%)
    Язык : Russian
    Default : Да
    Forced : Нет

    Аудио #2
    Идентификатор : 3
    Формат : DTS
    Формат/Информация : Digital Theater Systems
    Профиль формата : MA / Core
    Идентификатор кодека : A_DTS
    Продолжительность : 1 ч. 51 м.
    Вид битрейта : Переменный
    Битрейт : 1561 Кбит/сек / 1510 Кбит/сек
    Каналы : 6 каналов
    Расположение каналов : Front: L C R, Side: L R, LFE
    Частота : 48,0 КГц
    Битовая глубина : 24 бит
    Метод сжатия : Без потерь / Lossy
    Язык : English
    Default : Нет
    Forced : Нет

    Текст #1
    Идентификатор : 4
    Формат : UTF-8
    Идентификатор кодека : S_TEXT/UTF8
    Идентификатор кодека/Информация : UTF-8 Plain Text
    Язык : Russian
    Default : Нет
    Forced : Нет

    Текст #2
    Идентификатор : 5
    Формат : UTF-8
    Идентификатор кодека : S_TEXT/UTF8
    Идентификатор кодека/Информация : UTF-8 Plain Text
    Язык : English
    Default : Нет
    Forced : Нет

    Меню
    00:00:00.000 : en:Chapter 1
    00:05:45.845 : en:Chapter 2
    00:10:18.576 : en:Chapter 3
    00:19:57.362 : en:Chapter 4
    00:23:47.050 : en:Chapter 5
    00:31:47.697 : en:Chapter 6
    00:38:53.372 : en:Chapter 7
    00:47:46.655 : en:Chapter 8
    00:54:15.752 : en:Chapter 9
    01:03:26.302 : en:Chapter 10
    01:10:27.931 : en:Chapter 11
    01:15:43.538 : en:Chapter 12
    01:22:57.472 : en:Chapter 13
    01:27:04.135 : en:Chapter 14
    01:33:13.504 : en:Chapter 15
    01:42:43.115 : en:Chapter 16
    01:51:15.251 : en:Chapter 17

    Релиз группа NovaLan
    Автор сборки Sergei7721






    Релиз подготовил:
    Залил: Sergei7721
    Размер скачиваемого торрента: 16.77 GB (18007298097 Bytes)

    Семейный консультант / Temptation: Confessions of a Marriage Counselor (2013) BDRemux 1080p от NovaLan скачать через торрент бесплатно
    загрузка...
    Рейтинг →
     (голосов: 1, оценка 3/5, голосовать можно 1 раз )

    Другие торренты по теме:

  • Семейный детектив 2 (2013) SATRip от Files-x
  • Семейный заговор / Family Plot (1976) HDTVRip-AVC от Тorrent-Хzona
  • Семейный уик-энд / Family Weekend (2013) DVDRip | Sub
  • Семейный очаг (2010) WEB-DLRip скачать через торрент бесплатно
  • Семейный портрет в интерьере / Gruppo di famiglia in un interno (1974) HDRip
  • Гордон Рамзи. Семейный обед в воскресенье / Gordon Ramsays Sunday Lunch (2008) DVDRip-AVC от MediaClub скачать через торрент бесплатно
  • Семейный уик-энд / Family Weekend (2013) WEB-DLRip-AVC | iTunes скачать через торрент бесплатно
  • Семейный уик-энд / Family Weekend (2013) WEB-DLRip от Deadmauvlad | D скачать через торрент бесплатно


    • Комментарии (0):

      Информация

      Информация

        Посетители, находящиеся в группе Гости, не могут оставлять комментарии в данной новости.

        ↓ Меню



        ↓ Опрос

        А Вы добавили сайт в закладки?
        Да
        Не


        Top 10 за месяц (Фильмы)