.
Авторизация | Регистрация
» » Лошадь на балконе / Das Pferd auf dem Balkon (2012) DVDRip-AVC скачать через торрент бесплатно




    Лошадь на балконе / Das Pferd auf dem Balkon (2012) DVDRip-AVC скачать через торрент бесплатно

    Опубликовал: Админ | Дата: 27-02-2015, 11:10 | Просмотров: 203



    Страна: Австрия
    Жанр: приключения, семейный, экранизация
    Год выпуска: 2012
    Продолжительность: 01:41:20

    Перевод: субтитры (adamovna)
    Cубтитры: русские, немецкие, английские
    Оригинальная аудиодорожка: немецкий

    Режиссер: Хусейн Табак / H?seyin Tabak

    В ролях: Энцо Гайер / Enzo Gaier, Наташа Паунович / Natasa Paunovic, Нора Чирнер / Nora Tschirner, Андреас Киндль / Andreas Kiendl, Бибиан Целлер / Bibiane Zeller, Эрнст Станковски / Ernst Stankovski, Бранко Самаровски / Branko Samarovski, Александр Е. Феннон / Alexander E. Fennon, Murathan Muslu, Jasper Command, Shock Bunny Command

    Описание:
    У десятилетнего Мика есть проблемы в общении со сверстниками и взрослыми. Он всегда говорит только правду, ненавидит шутки, любит математику и педантичен в мелочах. Однажды мальчик обнаруживает на соседском балконе самую настоящую живую лошадь. Оказалось, что её выиграл в лотерею их новый сосед Саша. Мика быстро сдружился и с животным, и с хозяином, но тут выясняется, что у Саши проблемы — ему угрожают бандиты из-за неоплаченного долга. (Кинопоиск)

    Доп. информация



    Фильм снят по мотивам одноименной книги австрийского писателя сербского происхождения Мило Дора (Milo Dor) Das Pferd auf dem Balkon- 1971)


    Качество фильма видео: DVDRip-AVC
    Тип видео видео: MKV

    Информация о видео: 720x388 (1.856:1), 25.000 fps, H264 ~ 1085 kbps avg, 0.155 bit/pixel
    Информация о звуке: 48 kHz, Dolby Digital AC3 5.1, 384 kbps GER Original
    Тип видео субтитров: softsub (SRT)
    MediaInfo

    General
    Unique ID : 220396168086185868266563700786384282283 (0xA5CEC20A9E8F4690B8708794F97322AB)
    Complete name : Dаs Pfеrd аuf dеm Bаlkоn 2012.DVDRip.x264.n-t.mkv
    Format : Matroska
    Format version : Version 1
    File size : 953 MiB
    Duration : 1h 28mn
    Overall bit rate : 1 499 Kbps
    Encoded date : UTC 2014-06-02 07:25:24
    Writing application : mkvmerge v2.4.0 (;Fumbling Towards Ecstasy;) built on Oct 11 2008 20:13:15
    Writing library : libebml v0.7.7 + libmatroska v0.8.1
    Video #1
    ID : 1
    Format : AVC
    Format/Info : Advanced Video Codec
    Format profile : High@L3.1
    Format settings, CABAC : Yes
    Format settings, ReFrames : 5 frames
    Codec ID : V_MPEG4/ISO/AVC
    Duration : 1h 28mn
    Bit rate : 1 085 Kbps
    Width : 720 pixels
    Height : 388 pixels
    Display aspect ratio : 1.856
    Frame rate : 25.000 fps
    Color space : YUV
    Chroma subsampling : 4:2:0
    Bit depth : 8 bits
    Scan type : Progressive
    Bits/(Pixel*Frame) : 0.155
    Stream size : 690 MiB (72%)
    Writing library : x264 core 142 r2409 d6b4e63
    Encoding settings : cabac=1 / ref=5 / deblock=1:0:0 / analyse=0x3:0x113 / me=umh / subme=7 / psy=1 / psy_rd=1.00:0.00 / mixed_ref=1 / me_range=16 / chroma_me=1 / trellis=1 / 8x8dct=1 / cqm=0 / deadzone=21,11 / fast_pskip=0 / chroma_qp_offset=-2 / threads=18 / lookahead_threads=3 / sliced_threads=0 / nr=0 / decimate=1 / interlaced=0 / bluray_compat=0 / constrained_intra=0 / bframes=3 / b_pyramid=2 / b_adapt=1 / b_bias=0 / direct=1 / weightb=1 / open_gop=0 / weightp=2 / keyint=250 / keyint_min=25 / scenecut=40 / intra_refresh=0 / rc_lookahead=40 / rc=crf / mbtree=1 / crf=19.0 / qcomp=0.60 / qpmin=0 / qpmax=69 / qpstep=4 / ip_ratio=1.40 / aq=1:1.00
    Language : German
    Audio #2
    ID : 2
    Format : AC-3
    Format/Info : Audio Coding 3
    Mode extension : CM (complete main)
    Codec ID : A_AC3
    Duration : 1h 28mn
    Bit rate mode : Constant
    Bit rate : 384 Kbps
    Channel(s) : 6 channels
    Channel positions : Front: L C R, Side: L R, LFE
    Sampling rate : 48.0 KHz
    Bit depth : 16 bits
    Compression mode : Lossy
    Stream size : 244 MiB (26%)
    Title : German
    Language : German
    Text #3
    ID : 3
    Format : UTF-8
    Codec ID : S_TEXT/UTF8
    Codec ID/Info : UTF-8 Plain Text
    Title : sub rus (adamovna)
    Text #4
    ID : 4
    Format : UTF-8
    Codec ID : S_TEXT/UTF8
    Codec ID/Info : UTF-8 Plain Text
    Title : sub ger (original)
    Text #5
    ID : 5
    Format : UTF-8
    Codec ID : S_TEXT/UTF8
    Codec ID/Info : UTF-8 Plain Text
    Title : sub eng

    фрагмент субтитров

    102
    00:11:07,040 -- 00:11:08,155
    На что ты смотришь?

    103
    00:11:08,360 -- 00:11:09,793
    Ночью там была лошадь.

    104
    00:11:11,720 -- 00:11:13,950
    Ерунда. Может, это была
    большая собака.

    105
    00:11:14,280 -- 00:11:16,191
    Сенбернар или что-то вроде.

    106
    00:11:16,800 -- 00:11:18,279
    Там была лошадь!

    107
    00:11:18,640 -- 00:11:20,119
    Ах, да, ты же не можешь врать.

    108
    00:11:20,400 -- 00:11:21,992
    Может быть, это был сон.

    109
    00:11:22,440 -- 00:11:24,829
    Я знаю, когда сон,
    а когда реальность.

    110
    00:11:31,440 -- 00:11:32,475
    Я красивая?

    111
    00:11:33,320 -- 00:11:34,275
    Да.

    112
    00:11:35,000 -- 00:11:36,558
    Ты, действительно, не можешь врать.

    113
    00:11:38,840 -- 00:11:40,637
    Идем, давай посмотрим на лошадь.

    114
    00:11:48,160 -- 00:11:49,149
    Ты идешь?

    115
    00:12:07,280 -- 00:12:08,474
    Ты первый.

    116
    00:12:14,640 -- 00:12:15,709
    Я не могу.

    117
    00:12:16,600 -- 00:12:17,555
    Трус.

    118
    00:12:20,640 -- 00:12:22,198
    Хотя бы, подержи лестницу.

    119
    00:12:34,600 -- 00:12:36,238
    Там, действительно, лошадь!

    120
    00:12:37,360 -- 00:12:39,157
    Лошадь - это так круто!

    121
    00:12:40,480 -- 00:12:42,391
    Там больше никого нет.
    Заходи в дом.

    122
    00:12:42,640 -- 00:12:43,675
    Я открою тебе дверь.

    posters




    скриншоты





    Размер скачиваемого торрента: 952.64 MB (998916650 Bytes)

    Лошадь на балконе / Das Pferd auf dem Balkon (2012) DVDRip-AVC скачать через торрент бесплатно
    загрузка...
    Рейтинг →
     (голосов: 1, оценка 5/5, голосовать можно 1 раз )

    Другие торренты по теме:

  • Карлъ Врангель - Книга о лошади (1886-1898) PDF торрент скачать бесплатно
  • Смерть скачет на коне / Смерть верхом на лошади / Death Rides a Horse / Da uomo a uomo (1967) BDRip от Leon-masl | P, A торрент скачать бесплатно
  • Дикая лошадь / Crazy Horse (2011) BDRip 720p скачать через торрент бесплатно
  • Загнанных лошадей пристреливают, не правда ли / They Shoot Horses, Dont They (1969) DVDRip | D, P скачать через торрент бесплатно
  • О лошадях и людях / Hross oss (2013) TS скачать через торрент бесплатно
  • Не ходите, девки, замуж… или… ЛОШАДЬ БОЛЬШАЯ скачать через торрент бесплатно
  • О лошадях и людях / Hross í oss скачать через торрент бесплатно
  • История Лошади - спектакль (1989) DVD9 скачать торрент бесплатно


    • Комментарии (0):

      Информация

      Информация

        Посетители, находящиеся в группе Гости, не могут оставлять комментарии в данной новости.

        ↓ Меню



        ↓ Опрос

        А Вы добавили сайт в закладки?
        Да
        Не


        Top 10 за неделю (Фильмы)