.
Авторизация | Регистрация
Хочешь лучшие торренты? Добавь свой email!
Добавить
» » Ангелы Чарли / Charlies Angels (2000) BDRip-AVC | iPad | D скачать через торрент бесплатно




    Ангелы Чарли / Charlies Angels (2000) BDRip-AVC | iPad | D скачать через торрент бесплатно

    Опубликовал: Админ | Дата: 27-02-2015, 11:10 | Просмотров: 217



    Ангелы Чарли / Charlie;s Angels (2000) BDRip-AVC | iPad | D
    Action Doesn;t Get Any Hotter Than This.

    Русское название: Ангелы Чарли
    Русское название в мировом прокате: Charlie;s Angels
    Создали в: 2000
    Категория жанра: боевик, комедия, приключения, криминал
    Главный режиссер: МакДжи
    Актеры: Кэмерон Диаз, Дрю Бэрримор, Люси Лью, Билл Мюррэй, Сэм Рокуэлл, Келли Линч, Тим Карри, Криспин Гловер, Мэтт ЛеБлан, LL Кул Джей

    Сюжет фильма:
    Ангелы Чарли, суперсекретное элитное спецподразделение, которому доверяют только невыполнимые задания. С помощью новейших технологий, современного оружия, боевых искусств и убийственного женского очарования Ангелы Чарли творят чудеса. Но настоящим испытанием станет лишь это последнее задание...



    Снималось в: Германия, США
    Киностудия: Global Entertainment Productions GmbH Co. Movie KG.

    Время просмотра: 01:38:23
    Перевод текста: Русский дублированный

    Файл
    Кодек для видео: H.264
    Качество фильма: BDRip 576p
    Информация о видео: 1024x426 (2.40:1) at 23.976 fps, AVC at 3300 kbps
    Информация о звуке:
    1: АAС 2.0 147 kbps - Русский дублированный
    Субтитры: отсутствуют

    MediaInfo

    General
    Complete name : C:CREATE264mod1outCharlies.Angels.2000.576p.D.m4v
    Format : MPEG-4
    Codec ID : M4V
    File size : 2.40 GiB
    Duration : 1h 38mn
    Overall bit rate mode : Variable
    Overall bit rate : 3 485 Kbps
    Movie name : Ангелы Чарли
    Performer : McG
    Genre : Action Adventure
    ContentType : Short Film
    Deion : Три очаровательных ангела из частного детективного агентства решают любые, даже самые сложные задачи, с помощью своих многочисленных талантов и чувства юмора.На этот раз им предстоит выяснить, кто стоит за похищением главы корпорации Нокс Технолоджи
    Recorded date : UTC 2000-10-22 08:00:00
    Encoded date : UTC 2014-07-02 14:17:02
    Tagged date : UTC 2014-07-02 14:31:40
    Copyright : © 2000 Global Entertainment Productions GmbH Co. Movie KG. All Rights Reserved.
    Cover : Yes
    Comment : Прекрасные и опасные
    ContentRating : mpaa|PG-13|300|

    Title/Sort : Charlie;s Angels
    LongDeion : Три очаровательных ангела из частного детективного агентства решают любые, даже самые сложные задачи, с помощью своих многочисленных талантов и чувства юмора.На этот раз им предстоит выяснить, кто стоит за похищением главы корпорации Нокс Технолоджис и разработанного им программного обеспечения.
    AppleStoreCatalogID : 531648682
    Vendor : Apple:vendor_id:2000-633

    Video
    ID : 1
    Format : AVC
    Format/Info : Advanced Video Codec
    Format profile : High@L4.1
    Format settings, CABAC : Yes
    Format settings, ReFrames : 10 frames
    Codec ID : avc1
    Codec ID/Info : Advanced Video Coding
    Duration : 1h 38mn
    Bit rate : 3 328 Kbps
    Maximum bit rate : 13.5 Mbps
    Width : 1 024 pixels
    Height : 426 pixels
    Display aspect ratio : 2.40:1
    Frame rate mode : Constant
    Frame rate : 23.976 fps
    Color space : YUV
    Chroma subsampling : 4:2:0
    Bit depth : 8 bits
    Scan type : Progressive
    Bits/(Pixel*Frame) : 0.318
    Stream size : 2.29 GiB (96%)
    Title : Charlies.Angels.2000
    Language : English
    Encoded date : UTC 2014-07-02 14:17:02
    Tagged date : UTC 2014-07-02 14:17:14

    Audio
    ID : 2
    Format : AAC
    Format/Info : Advanced Audio Codec
    Format profile : LC
    Codec ID : 40
    Duration : 1h 38mn
    Bit rate mode : Variable
    Bit rate : 147 Kbps
    Maximum bit rate : 174 Kbps
    Channel(s) : 2 channels
    Channel positions : Front: L R
    Sampling rate : 48.0 KHz
    Compression mode : Lossy
    Stream size : 104 MiB (4%)
    Title : DUB
    Language : Russian
    Encoded date : UTC 2014-07-02 14:15:14
    Tagged date : UTC 2014-07-02 14:17:14

    Menu
    ID : 3
    Codec ID : text
    Duration : 1h 38mn
    Encoded date : UTC 2014-07-02 14:17:42
    Tagged date : UTC 2014-07-02 14:17:42
    Bit rate mode : CBR
    x264

    x264 info: frame I:1163 Avg QP:16.87 size: 73680
    x264 info: frame P:35906 Avg QP:19.31 size: 30045
    x264 info: frame B:104483 Avg QP:21.68 size: 12364
    x264 info: consecutive B-frames: 3.6% 4.2% 11.6% 33.4% 20.7% 20.3% 3.3% 1.7% 0.6% 0.2% 0.1% 0.1% 0.1% 0.1% 0.1%
    x264 info: mb I I16..4: 10.4% 61.1% 28.5%
    x264 info: mb P I16..4: 1.3% 15.0% 3.0% P16..4: 28.8% 33.7% 12.4% 3.1% 0.4% skip: 2.3%
    x264 info: mb B I16..4: 0.1% 2.4% 0.4% B16..8: 35.1% 23.3% 4.5% direct: 8.0% skip:26.2% L0:36.9% L1:41.5% BI:21.6%
    x264 info: 8x8 transform intra:77.3% inter:49.6%
    x264 info: coded y,uvDC,uvAC intra: 92.4% 85.0% 66.4% inter: 32.4% 25.3% 11.3%
    x264 info: i16 v,h,dc,p: 11% 14% 6% 69%
    x264 info: i8 v,h,dc,ddl,ddr,vr,hd,vl,hu: 10% 10% 6% 9% 13% 13% 12% 13% 14%
    x264 info: i4 v,h,dc,ddl,ddr,vr,hd,vl,hu: 12% 9% 4% 9% 15% 14% 13% 11% 13%
    x264 info: i8c dc,h,v,p: 34% 24% 19% 22%
    x264 info: Weighted P-Frames: Y:6.3% UV:3.8%
    x264 info: ref P L0: 57.2% 11.8% 13.0% 5.7% 3.8% 2.8% 2.2% 1.3% 1.1% 1.0% 0.2% 0.0%
    x264 info: ref B L0: 84.5% 6.6% 3.4% 1.7% 1.3% 1.0% 0.8% 0.5% 0.3%
    x264 info: ref B L1: 94.9% 5.1%
    x264 info: kb/s:3328.44
    iTunes tags


    Sort Name: Charlie;s Angels
    XID: Apple:vendor_id:2000-633
    Content ID: 531648682
    Copyright: © 2000 Global Entertainment Productions GmbH Co. Movie KG. All Rights Reserved.
    ScreenWriters: Райан Роу, Эд Соломон, Джон Огаст
    Producers: Дрю Бэрримор, Леонард Голдберг, Нэнси Джавонен
    Director: МакДжи
    Cast: Кэмерон Диаз, Дрю Бэрримор, Люси Лью, Билл Мюррей, Сэм Рокуэлл, Келли Линч, Тим Карри, Криспин Гловер, Мэтт ЛеБлан, ЭлЭл Кул Джей // Cameron Diaz (Natalie Cook), Lucy Liu (Alex Munday), Drew Barrymore (Dylan Sanders), Bill Murray (John Bosley), John Forsythe (Charles Townsend), Sam Rockwell (Eric Knox), Kelly Lynch (Vivian Wood), Tim Curry (Roger Corwin), Luke Wilson (Pete Komisky), Crispin Glover (Thin Man), Matt LeBlanc (Jason Gibbons), Tom Green (Chad), LL Cool J (Mr. Jones), Sean Whalen (Pasqual), Melissa McCarthy (Doris), Jerry Trimble (Thug)
    Rating: PG-13
    Long Deion: Три очаровательных ангела из частного детективного агентства решают любые, даже самые сложные задачи, с помощью своих многочисленных талантов и чувства юмора.На этот раз им предстоит выяснить, кто стоит за похищением главы корпорации Нокс Технолоджис и разработанного им программного обеспечения.
    Deion: Три очаровательных ангела из частного детективного агентства решают любые, даже самые сложные задачи, с помощью своих многочисленных талантов и чувства юмора.На этот раз им предстоит выяснить, кто стоит за похищением главы корпорации Нокс Технолоджи
    Release Date: 2000-10-22T08:00:00Z
    Genre: Action Adventure
    Artist: McG
    Name: Ангелы Чарли
    Comments: Прекрасные и опасные






    Залил: gekka
    Размер скачиваемого торрента: 2.40 GB (2571649358 Bytes)

    Ангелы Чарли / Charlies Angels (2000) BDRip-AVC | iPad | D скачать через торрент бесплатно
    загрузка...
    Рейтинг →
     (голосов: 1, оценка 5/5, голосовать можно 1 раз )

    Другие торренты по теме:

  • Ангелы Чарли 2: Только вперед / Charlies Angels: Full Throttle (2003) BDRip 1080p от FREEISLAND


    • Комментарии (0):

      Информация

      Информация

        Посетители, находящиеся в группе Гости, не могут оставлять комментарии в данной новости.

        ↓ Меню



        ↓ Опрос

        А Вы добавили сайт в закладки?
        Да
        Не


        Top 10 за месяц (Фильмы)