.
Авторизация | Регистрация
» » Мираж на льду / Miracle (2004) BDRip-AVC | iPad | P2,A скачать через торрент бесплатно




    Мираж на льду / Miracle (2004) BDRip-AVC | iPad | P2,A скачать через торрент бесплатно

    Опубликовал: Админ | Дата: 27-02-2015, 11:10 | Просмотров: 257



    Мираж на льду / Miracle (2004) BDRip-AVC | iPad | P2,A
    Do you believe in miracles?

    Русское название: Мираж на льду
    Русское название в мировом прокате: Miracle
    Создали в: 2004
    Категория жанра: драма, семейный, история, спорт
    Главный режиссер: Гэвин О’Коннор
    Актеры: Курт Рассел, Патришия Кларксон, Ноа Эммерик, Шон МакКэнн, Кеннет Уэлш, Эдди Кехилл, Патрик О’Брайан Демси, Майкл Мантенуто, Нэйтан Уэст, Кеннет Митчелл

    Сюжет фильма:
    Мираж на льду (англ. Miracle on Ice) — так была названа хоккейная игра между сборными СССР и США, прошедшая 22 февраля 1980 года на зимних Олимпийских играх в Лейк-Плэсиде. Выступая в ранге действующих чемпионов мира и олимпийских игр, советская команда неожиданно проиграла сборной, составленной из игроков студенческих команд. Матч сыграл решающую роль в распределении медалей в хоккейном турнире: выиграв заключительный матч финального турнира у Финляндии, сборная США завоевала золотые медали. Большинство восприняло это как нелепую случайность, но для многих граждан США Чудо на льду оказалось одним из самых ярких событий 2-й половины XX века. По свидетельству сестры игрока сборной США, она не видела такого количества флагов на улицах с 60-х годов. Но тогда мы их жгли, — добавила она..



    Снималось в: США
    Киностудия: Pop Pop Productions, Determination Productions, Mayhem Pictures

    Время просмотра: 02:15:55
    Перевод текста: Русский профессиональный двухголосый закадровый, авторский

    Файл
    Кодек для видео: H.264
    Качество фильма: BDRip 576p
    Информация о видео: 1024x426 (2.40:1) at 23.976 fps, AVC at 3500 kbps
    Информация о звуке:
    1: АAС 2.0 136 kbps - Русский профессиональный двухголосый закадровый
    1: АAС 2.0 123 kbps - Русский авторский (Ю.Сербин)
    Субтитры: отсутствуют

    MediaInfo

    General
    Complete name : I:modoutMiracle.2004.576p.P2A.m4v
    Format : MPEG-4
    Codec ID : M4V
    File size : 3.61 GiB
    Duration : 2h 15mn
    Overall bit rate mode : Variable
    Overall bit rate : 3 798 Kbps
    Movie name : Мираж на льду
    Performer : Gavin O;Connor
    Genre : Drama
    ContentType : Short Film
    Deion : История триумфа хоккейной сборной США, вырвавшейся в чемпионы Олимпиады 1980 года...
    Recorded date : UTC 2004-02-02 08:00:00
    Encoded date : UTC 2014-07-02 07:04:41
    Tagged date : UTC 2014-07-02 07:10:32
    Copyright : Pop Pop Productions, Determination Productions, Mayhem Pictures
    Cover : Yes
    Comment : Do you believe in miracles?
    ContentRating : mpaa|PG|200|

    Title/Sort : Miracle
    LongDeion : История триумфа хоккейной сборной США, вырвавшейся в чемпионы Олимпиады 1980 года...
    AppleStoreCatalogID : 205692552
    Vendor : Apple:vendor_id:2004-4895

    Video
    ID : 1
    Format : AVC
    Format/Info : Advanced Video Codec
    Format profile : High@L4.1
    Format settings, CABAC : Yes
    Format settings, ReFrames : 10 frames
    Codec ID : avc1
    Codec ID/Info : Advanced Video Coding
    Duration : 2h 15mn
    Bit rate : 3 527 Kbps
    Maximum bit rate : 12.7 Mbps
    Width : 1 024 pixels
    Height : 426 pixels
    Display aspect ratio : 2.40:1
    Frame rate mode : Constant
    Frame rate : 23.976 fps
    Color space : YUV
    Chroma subsampling : 4:2:0
    Bit depth : 8 bits
    Scan type : Progressive
    Bits/(Pixel*Frame) : 0.337
    Stream size : 3.35 GiB (93%)
    Title : Miracle.2004
    Language : English
    Encoded date : UTC 2014-07-02 07:04:41
    Tagged date : UTC 2014-07-02 07:05:30
    Matrix coefficients : BT.709

    Audio #1
    ID : 2
    Format : AAC
    Format/Info : Advanced Audio Codec
    Format profile : LC
    Codec ID : 40
    Duration : 2h 15mn
    Bit rate mode : Variable
    Bit rate : 137 Kbps
    Maximum bit rate : 167 Kbps
    Channel(s) : 2 channels
    Channel positions : Front: L R
    Sampling rate : 48.0 KHz
    Compression mode : Lossy
    Stream size : 133 MiB (4%)
    Title : DVO
    Language : Russian
    Encoded date : UTC 2014-07-02 06:54:49
    Tagged date : UTC 2014-07-02 07:05:30

    Audio #2
    ID : 3
    Format : AAC
    Format/Info : Advanced Audio Codec
    Format profile : LC
    Codec ID : 40
    Duration : 2h 15mn
    Bit rate mode : Variable
    Bit rate : 123 Kbps
    Maximum bit rate : 177 Kbps
    Channel(s) : 2 channels
    Channel positions : Front: L R
    Sampling rate : 48.0 KHz
    Compression mode : Lossy
    Stream size : 120 MiB (3%)
    Title : AVO Y.Serbin
    Language : Russian
    Encoded date : UTC 2014-07-02 07:01:01
    Tagged date : UTC 2014-07-02 07:05:30

    Menu
    ID : 4
    Codec ID : text
    Duration : 2h 15mn
    Encoded date : UTC 2014-07-02 07:06:12
    Tagged date : UTC 2014-07-02 07:06:12
    Bit rate mode : CBR

    x264

    x264 info: frame I:1400 Avg QP:16.39 size: 63623
    x264 info: frame P:51705 Avg QP:18.84 size: 30806
    x264 info: frame B:142424 Avg QP:20.52 size: 13432
    x264 info: consecutive B-frames: 4.0% 6.5% 14.7% 26.4% 14.8% 29.0% 2.4% 0.7% 0.5% 0.9% 0.0% 0.0% 0.0%
    x264 info: mb I I16..4: 9.7% 70.4% 19.8%
    x264 info: mb P I16..4: 1.7% 28.4% 3.3% P16..4: 23.7% 28.4% 9.6% 2.0% 0.2% skip: 2.9%
    x264 info: mb B I16..4: 0.1% 5.5% 0.4% B16..8: 33.4% 22.4% 4.0% direct: 8.3% skip:25.9% L0:36.8% L1:42.2% BI:21.1%
    x264 info: 8x8 transform intra:86.5% inter:55.5%
    x264 info: direct mvs spatial:100.0% temporal:0.0%
    x264 info: coded y,uvDC,uvAC intra: 96.1% 73.6% 50.2% inter: 34.5% 25.4% 10.5%
    x264 info: i16 v,h,dc,p: 7% 8% 14% 72%
    x264 info: i8 v,h,dc,ddl,ddr,vr,hd,vl,hu: 9% 10% 10% 9% 13% 11% 12% 12% 14%
    x264 info: i4 v,h,dc,ddl,ddr,vr,hd,vl,hu: 11% 8% 3% 9% 17% 15% 14% 11% 12%
    x264 info: i8c dc,h,v,p: 32% 32% 17% 19%
    x264 info: Weighted P-Frames: Y:3.5% UV:2.5%
    x264 info: ref P L0: 58.2% 11.0% 13.1% 5.6% 3.7% 2.7% 2.0% 1.3% 1.1% 1.0% 0.3% 0.0%
    x264 info: ref B L0: 86.4% 6.1% 2.9% 1.4% 1.1% 0.8% 0.6% 0.4% 0.3%
    x264 info: ref B L1: 95.6% 4.4%
    x264 info: kb/s:3526.56
    iTunes tags


    Sort Name: Miracle
    XID: Apple:vendor_id:2004-4895
    Content ID: 205692552
    Copyright: Pop Pop Productions, Determination Productions, Mayhem Pictures
    ScreenWriters: Эрик Гуггенхейм
    Producers: Марк Кьярди, Гордон Грэй, Росс Гринберг
    Director: Гэвин О’Коннор
    Cast: Курт Рассел, Патришия Кларксон, Ноа Эммерик, Шон МакКэнн, Кеннет Уэлш, Эдди Кехилл, Патрик О’Брайан Демси, Майкл Мантенуто, Нэйтан Уэст, Кеннет Митчелл // Kurt Russell (Herb Brooks), Patricia Clarkson (Patty Brooks), Noah Emmerich (Craig Patrick), Sean McCann (Walter Bush), Kenneth Welsh (Doc Nagobads), Eddie Cahill (Jim Craig), Patrick O;Brien Demsey (Mike Eruzione), Michael Mantenuto (Jack O;Callahan)
    Rating: PG
    Long Deion: История триумфа хоккейной сборной США, вырвавшейся в чемпионы Олимпиады 1980 года...
    Deion: История триумфа хоккейной сборной США, вырвавшейся в чемпионы Олимпиады 1980 года...
    Release Date: 2004-02-02T08:00:00Z
    Genre: Drama
    Artist: Gavin O;Connor
    Name: Мираж на льду
    Comments: Do you believe in miracles?






    Залил: gekka
    Размер скачиваемого торрента: 3.61 GB (3871722009 Bytes)

    Мираж на льду / Miracle (2004) BDRip-AVC | iPad | P2,A скачать через торрент бесплатно
    загрузка...
    Рейтинг →
     (голосов: 1, оценка 5/5, голосовать можно 1 раз )

    Другие торренты по теме:

  • Мираж - Звезды нас ждут (1987) MP3 торрент скачать бесплатно
  • Мираж - Дискография (1987-2014) FLAC скачать через торрент бесплатно
  • Мираж - Солнечное Лето. Лучшие Песни 1987-1995 (2014) MP3 скачать через торрент бесплатно
  • Жизнь как Мираж (2014) HDTVRip скачать через торрент бесплатно
  • Жизнь как Мираж (2014) HDTV 1080p скачать через торрент бесплатно
  • Мираж Junior - Diskografiya (2006-2009) MP3 скачать через торрент бесплатно
  • Сборник - Дискотека Студии Мираж 1 (2014) MP3 торрент скачать бесплатно
  • Сборник - Дискотека в стиле Мираж (2014) MP3 торрент скачать бесплатно


    • Комментарии (0):

      Информация

      Информация

        Посетители, находящиеся в группе Гости, не могут оставлять комментарии в данной новости.

        ↓ Меню



        ↓ Опрос

        А Вы добавили сайт в закладки?
        Да
        Не


        Top 10 за неделю (Фильмы)