.
Авторизация | Регистрация
Хочешь лучшие торренты? Добавь свой email!
Добавить
» » Ярость / The Rage (1997) DVDRip | P2 скачать через торрент бесплатно




    Ярость / The Rage (1997) DVDRip | P2 скачать через торрент бесплатно

    Опубликовал: Админ | Дата: 27-02-2015, 11:10 | Просмотров: 225



    Детально о кино
    Русское название: Ярость
    Русское название в мировом прокате: The Rage
    Создали в: 1997
    Категория жанра: Боевик
    Главный режиссер: Сидни Дж. Фьюри / Sidney J. Furie
    Актеры: Лоренцо Ламас, Кристен Клоук, Гэри Бьюзи, Брэндон Смит, Тиани Уорден, Делл Йонт, Дэвид Кэррэдин, Рой Шайдер, Дэвид Дженсен, Русс МакДжинн

    Сюжет фильма:
    Возглавляемая психопатом Дейси банда, состоящая из смертельно опасных и прекрасно обученных бойцов элитного спецотряда, совершает серию жестоких убийств. Безжалостные солдаты не только расправляются я молодыми девушками, но и строят планы уничтожения всех высших политических и военных чинов государства, считая, что только так можно отомстить за свою сегодняшнюю ненужность.




    Снималось в: США
    Время просмотра: 01:31:07
    Перевод текста: Профессиональный (двухголосый закадровый) REN TV

    Файл
    Качество фильма: DVDRip исх. DVD5
    Тип видео файла: AVI
    Информация о видео кодек: XviD
    Информация о звуке кодек: AC3
    Video: 640x480 (1.33:1), 25 fps, XviD build 50 ~2028 kbps avg, 0.26 bit/pixel
    Audio: 48 kHz, AC3 Dolby Digital, 2/0 (L,R) ch, ~256.00 kbps avg

    Скриншоты для ознакомления
    MediaInfo
    downloadThe_Rage_1997.DVDRip.avi.avi
    Формат : AVI
    Формат/Информация : Audio Video Interleave
    Размер файла : 1,46 Гбайт
    Продолжительность : 1 ч. 31 м.
    Общий поток : 2294 Кбит/сек
    Программа кодирования : VirtualDubMod 1.5.10.3 | http://www.virtualdub-fr.org || (build 2550/release)
    Библиотека кодирования : VirtualDubMod build 2550/release

    Видео
    Идентификатор : 0
    Формат : MPEG-4 Visual
    Профиль формата : Advanced Simple@L5
    Параметр BVOP формата : 2
    Параметр QPel формата : Нет
    Параметр GMC формата : Без точки перехода
    Параметр матрицы формата : Default (H.263)
    Идентификатор кодека : XVID
    Идентификатор кодека/Подсказка : XviD
    Продолжительность : 1 ч. 31 м.
    Битрейт : 2028 Кбит/сек
    Ширина : 640 пикселей
    Высота : 480 пикселей
    Соотношение сторон : 4:3
    Частота кадров : 25,000 кадров/сек
    Цветовое пространство : YUV
    Субдискретизация насыщенности : 4:2:0
    Битовая глубина : 8 бит
    Тип развёртки : Прогрессивная
    Метод сжатия : С потерями
    Бит/(Пиксели*Кадры) : 0.264
    Размер потока : 1,29 Гбайт (88%)
    Библиотека кодирования : XviD 1.2.1 (UTC 2008-12-04)

    Аудио
    Идентификатор : 1
    Формат : AC-3
    Формат/Информация : Audio Coding 3
    Расширение режима : CM (complete main)
    Параметр Endianness формата : Big
    Идентификатор кодека : 2000
    Продолжительность : 1 ч. 31 м.
    Вид битрейта : Постоянный
    Битрейт : 256 Кбит/сек
    Каналы : 2 канала
    Расположение каналов : Front: L R
    Частота : 48,0 КГц
    Битовая глубина : 16 бит
    Метод сжатия : С потерями
    Размер потока : 167 Мбайт (11%)
    Выравнивание : Разделение по промежуткам
    Продолжительность промежутка : 40 мс. (1,00 видеокадр)
    Время предзагрузки промежутка : 500 мс.


    Релиз подготовил:
    Залил: grom23
    Размер скачиваемого торрента: 1.46 GB (1567891456 Bytes)

    Ярость / The Rage (1997) DVDRip | P2 скачать через торрент бесплатно
    загрузка...
    Рейтинг →
     (голосов: 1, оценка 4/5, голосовать можно 1 раз )

    Другие торренты по теме:



      Комментарии (0):

      Информация

      Информация

        Посетители, находящиеся в группе Гости, не могут оставлять комментарии в данной новости.

        ↓ Меню



        ↓ Опрос

        А Вы добавили сайт в закладки?
        Да
        Не


        Top 10 за месяц (Фильмы)